Закатный стриптиз / Сансет Стрип / Sunset Strip (Пол Дж. Волк / Paul G. Volk) [1993, США, триллер, драма, VHSRip] AVO (Дольский)

Reply to topic
DL-List and Torrent activity
Size:  1.37 GB   |    Registered:  4 years 3 months   |    Completed:  0 times

Seeder not seen: 5 months 9 days

 
   
 
 
Author Message

star21 ®

Gender: Female

Longevity: 4 years 4 months

Posts: 551945

Location: Екатеринбург

Post 02-Dec-2015 05:43

[Quote]

Закатный стриптиз / Сансет Стрип / Sunset Strip
Страна: США
Жанр: триллер, драма + большая капля эротики
Год выпуска: 1993
Продолжительность: 01:36:54.
Перевод: Авторский (одноголосый закадровый) Дольский
Cубтитры: нет
Режиссер: Пол Дж. Волк / Paul G. Volk
В ролях: Джефф Конэвей
Мишель Формен
Камерон
Trisha Giallella
Мишель Клуни
Лори Джо Хендрикс
Шелли Мишель
Роберт Бил
Пол Бонд
Описание: Аннотация от alenavova
Несмотря на то, что в оригинальном названии фильма действительно есть слово "sunset", буквально означающее именно "закат солнца", не исключено, что переводчик русскоязычной видеоверсии подразумевал и другой смысл выражения "Закатный стриптиз". Главная героиня Хэзер никак не могла набраться смелости и скинуть с себя на публике опостылевшие одежды. Видно было, что стесняется она собственного "костюма Евы". И подружки-стриптизерки подтрунивали. Однако долгие тренировки в уединении помаленьку сказались, и однажды Хэзер ошеломила посетителей ночного клуба и даже самого владельца (который, впрочем, успел стать ее любовником). Короче, станцевала-таки свой "закатный стриптиз". То бишь "лебединую песню"...
Доп. информация: Оцифровка VHS (личный архив) и получение VHSRip alenavova
Эксклюзив для rutracker.org. При размещении данного релиза на других сайтах ссылка на автора alenavova обязательна.

Релиз
Сэмпл: https://yadi.sk/i/qahlmBNGixnZJ
Качество видео: VHSRip
Формат видео: AVI
Видео: 704x512 (1.38:1), 25 fps, XviD build 50 ~1819 kbps avg, 0.20 bit/pixel
Аудио: 48 kHz, AC3 Dolby Digital, 2/0 (L,R) ch, ~192 kbps

MediaInfo

Закатный стриптиз - Sunset Strip (by alenavova).avi
Format : AVI
Format/Info : Audio Video Interleave
File size : 1.37 GiB
Duration : 1h 36mn
Overall bit rate : 2 022 Kbps
Movie name : Закатный стриптиз - Sunset Strip (by alenavova)
Director : by alenavova
Writing application : VirtualDubMod 1.5.10.3 | www.virtualdub-fr.org || (build 2550/release)
Copyright : Edich2
Comment : RuTracker.org
Video
ID : 0
Format : MPEG-4 Visual
Format profile : Advanced Simple@L5
Format settings, BVOP : 1
Format settings, QPel : No
Format settings, GMC : No warppoints
Format settings, Matrix : Default (MPEG)
Codec ID : XVID
Codec ID/Hint : XviD
Duration : 1h 36mn
Bit rate : 1 820 Kbps
Width : 704 pixels
Height : 512 pixels
Display aspect ratio : 1.375
Frame rate : 25.000 fps
Color space : YUV
Chroma subsampling : 4:2:0
Bit depth : 8 bits
Scan type : Progressive
Compression mode : Lossy
Bits/(Pixel*Frame) : 0.202
Stream size : 1.23 GiB (90%)
Writing library : XviD 1.2.1 (UTC 2008-12-04)
Audio
ID : 1
Format : AC-3
Format/Info : Audio Coding 3
Mode extension : CM (complete main)
Format settings, Endianness : Big
Codec ID : 2000
Duration : 1h 36mn
Bit rate mode : Constant
Bit rate : 192 Kbps
Channel(s) : 2 channels
Channel positions : Front: L R
Sampling rate : 48.0 KHz
Bit depth : 16 bits
Compression mode : Lossy
Stream size : 133 MiB (9%)
Alignment : Split accross interleaves
Interleave, duration : 40 ms (1.00 video frame)
Interleave, preload duration : 500 ms

Скриншоты



To download the content you need:
1. Download and install torrent client [for Windows] or for mobile system
2. Click on [Download]
Attention.
If the test YOU are NOT a ROBOT - does not work, then You are using an outdated browser.
Install the current browser and click on [Download]

Do not work with Yandex browser. Uploading files to them is erroneous.
Security: torrent client is allowed by Kaspersky.

[en.asmlocator.ru].t4860.torrent 
Torrent: Registered [ 2015-12-02 05:40 ] · 50D816D2A125E5B2C45DB7C90748BEE8B369385E

Download .torrent

Download

14 KB

Status: checked
Completed: 0 times
Size: 1.37 GB
terms.php
[Profile] [PM]
Display posts:    
Reply to topic

Current time is: 29-Mar 18:15

All times are UTC ± 0



You cannot post new topics in this forum
You cannot reply to topics in this forum
You cannot edit your posts in this forum
You cannot delete your posts in this forum
You cannot vote in polls in this forum
You cannot attach files in this forum
You can download files in this forum
Верим фактам, а не вранью Путина! Факт, что Правительство ведёт Россию к истреблению.
Так как численность населения падает, даже не смотря на приток эмигрантов!
Русская нация вымирает и вырождается, смешиваясь с эмигрантами!
Факт, что военных и граждан предприятий заставляют голосовать за партию Единая Россия и Путина
ПОД СТРАХОМ УВОЛЬНЕНИЯ!
Нам не нужно Правительство, блокирующее личную жизнь, интернет, нарушающее сохранность данных.
Все эти действия финансируются за счёт народа!