Скала / The Rock (Майкл Бэй / Michael Bay) [1996, США, боевик, триллер, приключения, VHSRip] AVO Леша-Прапорщик

Reply to topic
DL-List and Torrent activity
Size:  1.47 GB   |    Registered:  4 years 4 months   |    Completed:  0 times

Seeder not seen: Never

 
   
 
 
Author Message

star21 ®

Gender: Female

Longevity: 4 years 4 months

Posts: 551945

Location: Екатеринбург

Post 02-Dec-2015 05:43

[Quote]

Скала / The Rock
Страна: США
Жанр: боевик, триллер, приключения
Год выпуска: 1996
Продолжительность: 02:16:07
Перевод: Одноголосый закадровый [Леша-Прапорщик]
Cубтитры: нет
Режиссер: Майкл Бэй / Michael Bay
В ролях: Шон Коннери / Sean Connery, Николас Кэйдж / Nicolas Cage, Эд Хэррис / Ed Harris, Джон Спенсер / John Spencer, Дэвид Морс / David Morse, Уильям Форсайт / William Forsythe, Майкл Бин / Michael Biehn, Ванесса Марсил / Vanessa Marcil, Джон К. МакГинли / John C. McGinley, Грегори Спорледер / Gregory Sporleder.
Описание: Генерал элитных диверсионных спецсил США, за плечами которого опыт чуть ли не всех войн планеты, похищает со своими лучшими подчиненными ракеты со смертоносным газом и захватывает в заложники туристов в бывшей тюрьме «Алькатрас», находящейся на острове в бухте Сан-Франциско.
Они требуют по миллиону долларов семьям погибших и кругленькую сумму себе. Для того, чтобы обезвредить группу, из тюрьмы вытаскивают британского шпиона, когда-то совершившего побег из этой тюрьмы.
Доп. информация: Оцифровка VHS (личный архив) и получение VHSRip alenavova
Эксклюзив для rutracker.org. При размещении данного релиза на других сайтах ссылка на автора alenavova обязательна.

Релиз
Сэмпл: https://yadi.sk/i/3mpOnieOiyZYF
Качество видео: VHSRip
Формат видео: AVI
Видео: 704x512 (1.38:1), 25 fps, XviD build 50 ~1340 kbps avg, 0.15 bit/pixel
Аудио: 48 kHz, AC3 Dolby Digital, 2/0 (L,R) ch, ~192 kbps

MediaInfo

Скала - The Rock (by alenavova).avi
Format : AVI
Format/Info : Audio Video Interleave
File size : 1.47 GiB
Duration : 2h 16mn
Overall bit rate : 1 542 Kbps
Movie name : Скала - The Rock (by alenavova)
Director : by alenavova
Writing application : VirtualDubMod 1.5.10.3 | www.virtualdub-fr.org || (build 2550/release)
Copyright : Edich2
Comment : RuTracker.org
Video
ID : 0
Format : MPEG-4 Visual
Format profile : Advanced Simple@L5
Format settings, BVOP : 1
Format settings, QPel : No
Format settings, GMC : No warppoints
Format settings, Matrix : Default (MPEG)
Codec ID : XVID
Codec ID/Hint : XviD
Duration : 2h 16mn
Bit rate : 1 341 Kbps
Width : 704 pixels
Height : 512 pixels
Display aspect ratio : 1.375
Frame rate : 25.000 fps
Color space : YUV
Chroma subsampling : 4:2:0
Bit depth : 8 bits
Scan type : Progressive
Compression mode : Lossy
Bits/(Pixel*Frame) : 0.149
Stream size : 1.27 GiB (87%)
Writing library : XviD 1.2.1 (UTC 2008-12-04)
Audio
ID : 1
Format : AC-3
Format/Info : Audio Coding 3
Mode extension : CM (complete main)
Format settings, Endianness : Big
Codec ID : 2000
Duration : 2h 16mn
Bit rate mode : Constant
Bit rate : 192 Kbps
Channel(s) : 2 channels
Channel positions : Front: L R
Sampling rate : 48.0 KHz
Bit depth : 16 bits
Compression mode : Lossy
Stream size : 187 MiB (12%)
Alignment : Split accross interleaves
Interleave, duration : 40 ms (1.00 video frame)
Interleave, preload duration : 500 ms

Скриншоты


To download the content you need:
1. Download and install torrent client [for Windows] or for mobile system
2. Click on [Download]
Attention.
If the test YOU are NOT a ROBOT - does not work, then You are using an outdated browser.
Install the current browser and click on [Download]

Do not work with Yandex browser. Uploading files to them is erroneous.
Security: torrent client is allowed by Kaspersky.

[en.asmlocator.ru].t4859.torrent 
Torrent: Registered [ 2015-12-02 05:40 ] · A48591A86F2B68E5C964CC645EF9A4FE0B6C859F

Download .torrent

Download

15 KB

Status: checked
Completed: 0 times
Size: 1.47 GB
terms.php
[Profile] [PM]
Display posts:    
Reply to topic

Current time is: 04-Apr 14:54

All times are UTC ± 0



You cannot post new topics in this forum
You cannot reply to topics in this forum
You cannot edit your posts in this forum
You cannot delete your posts in this forum
You cannot vote in polls in this forum
You cannot attach files in this forum
You can download files in this forum
Верим фактам, а не вранью Путина! Факт, что Правительство ведёт Россию к истреблению.
Так как численность населения падает, даже не смотря на приток эмигрантов!
Русская нация вымирает и вырождается, смешиваясь с эмигрантами!
Факт, что военных и граждан предприятий заставляют голосовать за партию Единая Россия и Путина
ПОД СТРАХОМ УВОЛЬНЕНИЯ!
Нам не нужно Правительство, блокирующее личную жизнь, интернет, нарушающее сохранность данных.
Все эти действия финансируются за счёт народа!