Пространство для маневра / Range of Motion (Дональд Рай / Donald Wrye) [2000, США, драма, VHSRip] DVO (EA)

Reply to topic
DL-List and Torrent activity
Size:  1.37 GB   |    Registered:  4 years 3 months   |    Completed:  0 times

Seeder not seen: Never

 
   
 
 
Author Message

star21 ®

Gender: Female

Longevity: 4 years 4 months

Posts: 551945

Location: Екатеринбург

Post 02-Dec-2015 05:43

[Quote]

Пространство для маневра / Range of Motion
Страна: США
Жанр: драма
Год выпуска: 2000
Продолжительность: 01:29:52
Перевод: Профессиональный (двухголосый закадровый) EA
Cубтитры: нет
Режиссер: Дональд Рай / Donald Wrye
В ролях: Ребекка Де Морнэй, Хенри Черни, Барклай Хоуп, Шарлотт Арнолд, Кайла Перлмуттер, Стюарт Бик, Ким Робертс, Мелани Мэйрон, Филип Эйкин
Описание: Серия "Мировой бестселлер на видео".
Экранизация популярного романа Элизабет Берг.

Кошмар семьи Берманов начался в тот день, когда во время утренней пробежки Джей стал жертвой несчастного случая. Хотя он остался жив, но находится в коме. Так как все родственники Джея, да и он сам сильно стеснены в средствах, его помещают во второразрядный реабилитационный центр. Кажется, что Лэйни Берман (Ребекка де Морнэй - "Три мушкетера", "Рука, качающая колыбель") должна утратить всякую надежду на возвращение к жизни своей "половины". Но иногда для того, чтобы совершить чудо, не хватает самой "малости": всего лишь любви. Посмотрите эту трогательную историю нерушимой связи между двумя людьми, скрепляющей их союз несмотря на все превратности судьбы. И Вы поверите, что сила настоящей любви способна исцелять...
Доп. информация: Оцифровка лицензионной VHS (личный архив) и получение VHSRip alenavova
Эксклюзив для rutracker.org. При размещении данного релиза на других сайтах ссылка на автора alenavova обязательна.

Релиз
Сэмпл: https://yadi.sk/i/ZlLX_f2cizJSw
Качество видео: VHSRip
Формат видео: AVI
Видео: 704x528 (1.33:1), 25 fps, XviD build 50 ~1976 kbps avg, 0.21 bit/pixel
Аудио: 48 kHz, AC3 Dolby Digital, 2/0 (L,R) ch, ~192 kbps

MediaInfo

Пространство для маневра - Range of Motion (by alenavova).avi
Format : AVI
Format/Info : Audio Video Interleave
File size : 1.37 GiB
Duration : 1h 29mn
Overall bit rate : 2 178 Kbps
Movie name : Пространство для маневра - Range of Motion (by alenavova)
Director : by alenavova
Writing application : VirtualDubMod 1.5.10.3 | www.virtualdub-fr.org || (build 2550/release)
Copyright : Edich2
Comment : Rutracker.org
Video
ID : 0
Format : MPEG-4 Visual
Format profile : Advanced Simple@L5
Format settings, BVOP : 1
Format settings, QPel : No
Format settings, GMC : No warppoints
Format settings, Matrix : Default (MPEG)
Codec ID : XVID
Codec ID/Hint : XviD
Duration : 1h 29mn
Bit rate : 1 977 Kbps
Width : 704 pixels
Height : 528 pixels
Display aspect ratio : 4:3
Frame rate : 25.000 fps
Color space : YUV
Chroma subsampling : 4:2:0
Bit depth : 8 bits
Scan type : Progressive
Compression mode : Lossy
Bits/(Pixel*Frame) : 0.213
Stream size : 1.24 GiB (91%)
Writing library : XviD 1.2.1 (UTC 2008-12-04)
Audio
ID : 1
Format : AC-3
Format/Info : Audio Coding 3
Mode extension : CM (complete main)
Format settings, Endianness : Big
Codec ID : 2000
Duration : 1h 29mn
Bit rate mode : Constant
Bit rate : 192 Kbps
Channel(s) : 2 channels
Channel positions : Front: L R
Sampling rate : 48.0 KHz
Bit depth : 16 bits
Compression mode : Lossy
Stream size : 123 MiB (9%)
Alignment : Split accross interleaves
Interleave, duration : 40 ms (1.00 video frame)
Interleave, preload duration : 500 ms

Скриншоты


To download the content you need:
1. Download and install torrent client [for Windows] or for mobile system
2. Click on [Download]
Attention.
If the test YOU are NOT a ROBOT - does not work, then You are using an outdated browser.
Install the current browser and click on [Download]

Do not work with Yandex browser. Uploading files to them is erroneous.
Security: torrent client is allowed by Kaspersky.

[en.asmlocator.ru].t4858.torrent 
Torrent: Registered [ 2015-12-02 05:40 ] · 3E3291E4A663F9A444458B22BB1F116C79F09279

Download .torrent

Download

14 KB

Status: checked
Completed: 0 times
Size: 1.37 GB
terms.php
[Profile] [PM]
Display posts:    
Reply to topic

Current time is: 31-Mar 16:56

All times are UTC ± 0



You cannot post new topics in this forum
You cannot reply to topics in this forum
You cannot edit your posts in this forum
You cannot delete your posts in this forum
You cannot vote in polls in this forum
You cannot attach files in this forum
You can download files in this forum
Верим фактам, а не вранью Путина! Факт, что Правительство ведёт Россию к истреблению.
Так как численность населения падает, даже не смотря на приток эмигрантов!
Русская нация вымирает и вырождается, смешиваясь с эмигрантами!
Факт, что военных и граждан предприятий заставляют голосовать за партию Единая Россия и Путина
ПОД СТРАХОМ УВОЛЬНЕНИЯ!
Нам не нужно Правительство, блокирующее личную жизнь, интернет, нарушающее сохранность данных.
Все эти действия финансируются за счёт народа!