Освободите Вилли / Free Willy (Саймон Уинсер / Simon Wincer) [1993, США, Драма, приключения, семейный, BDRip-AVC] Dub (Пифагор) + Dub (Гемини-Фильм) + DVO (R5) + DVO (ОРТ) + DVO + Original (Eng) + Subs (Rus, Eng)

Reply to topic
DL-List and Torrent activity
Size:  3.71 GB   |    Registered:  4 years 4 months   |    Completed:  0 times

Seeder not seen: Never

 
   
 
 
Author Message

star21 ®

Gender: Female

Longevity: 4 years 4 months

Posts: 551945

Location: Екатеринбург

Post 02-Dec-2015 05:43

[Quote]

Освободите Вилли / Free Willy- Год выпуска: 1993
Выпущено: США, Франция / Warner Bros. Pictures, Regency Enterprises
Жанр: драма, приключения, семейный
Продолжительность: 01:51:43
Перевод (1): Профессиональный (полное дублирование) Студия «Пифагор»
Перевод (2): Профессиональный (полное дублирование) Гемини-Фильм
Перевод (3): Профессиональный (двухголосый закадровый) R5
Перевод (4): Профессиональный (двухголосый закадровый) ОРТ
Перевод (5): Профессиональный (двухголосый закадровый)
Оригинальная аудиодорожка: Английская
Cубтитры: Русские (полные + форсированные), Английские (полные, SDH)
Навигация по главам: Есть (12 глав)-Режиссер:
Саймон Уинсер / Simon Wincer-В ролях:
Джейсон Джеймс Рихтер (Jesse), Лори Петти (Rae Lindley), Джейн Эткинсон (Annie Greenwood), Аугуст Шелленберг (Randolph Johnson), Майкл Мэдсен (Glen Greenwood), Майкл Айронсайд (Dial), Ричард Рили (Wade), Майкелти Уильямсон (Dwight Mercer), Майкл Бэколл (Perry), Даниэль Харрис (Gwenie)-Описание:
Косатка, или как еще называют это огромное морское животное, кит-убийца, был разлучен со своей семьей. Люди доставили его в парк развлечений, дали имя Вилли и ожидали, что смогут заработать на его представлениях кучи денег. В то же время зритель знакомится с мальчишкой Джесси, сбежавшим из дома и добывающим хлеб насущный воровством и попрошайничеством. Джесси находит новых, добрых родителей и ему нужно стереть всякие не очень приличные надписи, которые он нарисовал спреем в парке. И там-то и происходит встреча трудного подростка и кита-убийцы. Они полюбили друг друга с первого взгляда. А злой владелец парка развлечений по имени Диал уже понял, что зря переводит деньги на непослушного Вилли, и хочет его убить, чтобы получить страховку.-Релиз групп | | [imdb]http://www.imdb.com/title/tt0106965[/imdb] | КиноПоиск | Сэмпл |-Тип релиза: BDRip-AVC [Blu-Ray Disc | 1080p | HDTRACKER]
Контейнер: MKV
Видео: 1152x480 (2.40:1), 23.976 fps, x264 ~3072 kbps avg, 0.232 bit/pixel
Аудио #1: 48 kHz, AC3 Dolby Digital, 2/0 (L,R) ch, ~192.00 kbps avg (DUB) Студия «Пифагор»
Аудио #2: 48 kHz, AC3 Dolby Digital, 3/2 (L,C,R,l,r) + LFE ch, ~384.00 kbps avg (DVO) R5
Аудио #3: 48 kHz, AC3 Dolby Digital, 3/2 (L,C,R,l,r) + LFE ch, ~448.00 kbps avg (ENG)-Аудио #4: 48 kHz, AC3 Dolby Digital, 2/0 (L,R) ch, ~192.00 kbps avg (DUB) Гемини-Фильм отдельно
Аудио #5: 48 kHz, AC3 Dolby Digital, 2/0 (L,R) ch, ~192.00 kbps avg (DVO) ОРТ отдельно
Аудио #6: 48 kHz, AC3 Dolby Digital, 2/0 (L,R) ch, ~192.00 kbps avg (DVO) отдельно-

Скриншоты

MediaInfo

General
Complete name                            : D:\Osvobodite Willy_1993_BDRip-AVC_by_Dalemake.mkv
Format                                   : Matroska
Format version                           : Version 4 / Version 2
File size                                : 3.26 GiB
Duration                                 : 1h 51mn
Overall bit rate                         : 4 179 Kbps
Encoded date                             : UTC 2015-09-11 08:32:20
Writing application                      : mkvmerge v6.1.0 ('Old Devil') built on Mar  4 2013 09:10:42
Writing library                          : libebml v1.3.0 + libmatroska v1.4.0
Video
ID                                       : 1
Format                                   : AVC
Format/Info                              : Advanced Video Codec
Format profile                           : High@L4.1
Format settings, CABAC                   : Yes
Format settings, ReFrames                : 11 frames
Codec ID                                 : V_MPEG4/ISO/AVC
Duration                                 : 1h 51mn
Bit rate                                 : 3 072 Kbps
Width                                    : 1 152 pixels
Height                                   : 480 pixels
Display aspect ratio                     : 2.40:1
Frame rate mode                          : Constant
Frame rate                               : 23.976 fps
Color space                              : YUV
Chroma subsampling                       : 4:2:0
Bit depth                                : 8 bits
Scan type                                : Progressive
Bits/(Pixel*Frame)                       : 0.232
Stream size                              : 2.40 GiB (74%)
Writing library                          : x264 core 130 r2273 b3065e6
Encoding settings                        : cabac=1 / ref=11 / deblock=1:-1:-1 / analyse=0x3:0x113 / me=umh / subme=11 / psy=1 / psy_rd=1.00:0.00 / mixed_ref=1 / me_range=32 / chroma_me=1 / trellis=2 / 8x8dct=1 / cqm=0 / deadzone=21,11 / fast_pskip=1 / chroma_qp_offset=-2 / threads=6 / lookahead_threads=1 / sliced_threads=0 / nr=0 / decimate=0 / interlaced=0 / bluray_compat=0 / constrained_intra=0 / bframes=12 / b_pyramid=2 / b_adapt=2 / b_bias=0 / direct=3 / weightb=1 / open_gop=1 / weightp=2 / keyint=240 / keyint_min=23 / scenecut=40 / intra_refresh=0 / rc_lookahead=60 / rc=crf / mbtree=1 / crf=19.2 / qcomp=0.60 / qpmin=0 / qpmax=69 / qpstep=4 / vbv_maxrate=62500 / vbv_bufsize=50000 / crf_max=0.0 / nal_hrd=none / ip_ratio=1.40 / aq=1:0.80
Default                                  : Yes
Forced                                   : No
Audio #1
ID                                       : 2
Format                                   : AC-3
Format/Info                              : Audio Coding 3
Mode extension                           : CM (complete main)
Format settings, Endianness              : Big
Codec ID                                 : A_AC3
Duration                                 : 1h 51mn
Bit rate mode                            : Constant
Bit rate                                 : 192 Kbps
Channel(s)                               : 2 channels
Channel positions                        : Front: L R
Sampling rate                            : 48.0 KHz
Bit depth                                : 16 bits
Compression mode                         : Lossy
Stream size                              : 153 MiB (5%)
Title                                    : Dub Pifagor
Language                                 : Russian
Default                                  : Yes
Forced                                   : No
Audio #2
ID                                       : 3
Format                                   : AC-3
Format/Info                              : Audio Coding 3
Mode extension                           : CM (complete main)
Format settings, Endianness              : Big
Codec ID                                 : A_AC3
Duration                                 : 1h 51mn
Bit rate mode                            : Constant
Bit rate                                 : 384 Kbps
Channel(s)                               : 6 channels
Channel positions                        : Front: L C R, Side: L R, LFE
Sampling rate                            : 48.0 KHz
Bit depth                                : 16 bits
Compression mode                         : Lossy
Stream size                              : 307 MiB (9%)
Title                                    : DVO R5
Language                                 : Russian
Default                                  : No
Forced                                   : No
Audio #3
ID                                       : 4
Format                                   : AC-3
Format/Info                              : Audio Coding 3
Mode extension                           : CM (complete main)
Format settings, Endianness              : Big
Codec ID                                 : A_AC3
Duration                                 : 1h 51mn
Bit rate mode                            : Constant
Bit rate                                 : 448 Kbps
Channel(s)                               : 6 channels
Channel positions                        : Front: L C R, Side: L R, LFE
Sampling rate                            : 48.0 KHz
Bit depth                                : 16 bits
Compression mode                         : Lossy
Stream size                              : 358 MiB (11%)
Title                                    : Original
Language                                 : English
Default                                  : No
Forced                                   : No
Text #1
ID                                       : 5
Format                                   : UTF-8
Codec ID                                 : S_TEXT/UTF8
Codec ID/Info                            : UTF-8 Plain Text
Title                                    : Forced
Language                                 : Russian
Default                                  : Yes
Forced                                   : No
Text #2
ID                                       : 6
Format                                   : UTF-8
Codec ID                                 : S_TEXT/UTF8
Codec ID/Info                            : UTF-8 Plain Text
Title                                    : Full
Language                                 : Russian
Default                                  : No
Forced                                   : No
Text #3
ID                                       : 7
Format                                   : UTF-8
Codec ID                                 : S_TEXT/UTF8
Codec ID/Info                            : UTF-8 Plain Text
Title                                    : Full
Language                                 : English
Default                                  : No
Forced                                   : No
Text #4
ID                                       : 8
Format                                   : UTF-8
Codec ID                                 : S_TEXT/UTF8
Codec ID/Info                            : UTF-8 Plain Text
Title                                    : Full SDH
Language                                 : English
Default                                  : No
Forced                                   : No
Menu
00:00:00.000                             : en:00:00:00.000
00:11:24.017                             : en:00:11:24.017
00:19:44.517                             : en:00:19:44.517
00:29:41.780                             : en:00:29:41.780
00:40:16.080                             : en:00:40:16.080
00:51:36.844                             : en:00:51:36.844
01:00:26.331                             : en:01:00:26.331
01:12:47.029                             : en:01:12:47.029
01:20:19.773                             : en:01:20:19.773
01:29:07.551                             : en:01:29:07.551
01:40:14.508                             : en:01:40:14.508
01:45:56.350                             : en:01:45:56.350

x264 log

x264 [info]: frame I:1128  Avg QP:17.87  size: 91382
x264 [info]: frame P:32375 Avg QP:21.91  size: 33571
x264 [info]: frame B:127237 Avg QP:24.11  size: 11414
x264 [info]: consecutive B-frames:  1.0%  1.7%  3.7% 27.0% 16.9% 36.1%  6.0%  2.3%  1.7%  1.9%  0.7%  0.4%  0.7%
x264 [info]: mb I  I16..4:  3.5% 79.3% 17.3%
x264 [info]: mb P  I16..4:  0.5% 10.5%  1.7%  P16..4: 33.2% 37.8% 12.6%  0.0%  0.0%    skip: 3.7%
x264 [info]: mb B  I16..4:  0.0%  1.8%  0.3%  B16..8: 39.7% 19.5%  3.5%  direct: 5.3%  skip:29.8%  L0:44.8% L1:44.0% BI:11.2%
x264 [info]: 8x8 transform intra:82.9% inter:66.3%
x264 [info]: direct mvs  spatial:100.0% temporal:0.0%
x264 [info]: coded y,uvDC,uvAC intra: 95.4% 83.5% 57.1% inter: 32.5% 25.7% 9.3%
x264 [info]: i16 v,h,dc,p: 23% 26%  4% 47%
x264 [info]: i8 v,h,dc,ddl,ddr,vr,hd,vl,hu:  6% 12%  3%  9% 15% 12% 17% 10% 15%
x264 [info]: i4 v,h,dc,ddl,ddr,vr,hd,vl,hu:  6% 16%  2%  7% 14% 12% 17%  9% 17%
x264 [info]: i8c dc,h,v,p: 34% 33% 16% 18%
x264 [info]: Weighted P-Frames: Y:4.1% UV:1.5%
x264 [info]: ref P L0: 39.7% 11.9% 18.6%  6.6%  6.5%  4.1%  4.3%  2.1%  2.3%  1.7%  2.0%  0.1%  0.0%
x264 [info]: ref B L0: 70.2% 12.0%  6.3%  3.4%  2.4%  2.1%  1.6%  1.1%  0.6%  0.3%
x264 [info]: ref B L1: 92.9%  7.1%

Сравнение с исходником

http://screenshotcomparison.com/comparison/142314
-

To download the content you need:
1. Download and install torrent client [for Windows] or for mobile system
2. Click on [Download]
Attention.
If the test YOU are NOT a ROBOT - does not work, then You are using an outdated browser.
Install the current browser and click on [Download]

Do not work with Yandex browser. Uploading files to them is erroneous.
Security: torrent client is allowed by Kaspersky.

[en.asmlocator.ru].t4856.torrent 
Torrent: Registered [ 2015-12-02 05:40 ] · F1FDA4C1623C23CAFDEBC933675647B6D0101E59

Download .torrent

Download

19 KB

Status: checked
Completed: 0 times
Size: 3.71 GB
terms.php
[Profile] [PM]
Display posts:    
Reply to topic

Current time is: 05-Apr 02:51

All times are UTC ± 0



You cannot post new topics in this forum
You cannot reply to topics in this forum
You cannot edit your posts in this forum
You cannot delete your posts in this forum
You cannot vote in polls in this forum
You cannot attach files in this forum
You can download files in this forum
Верим фактам, а не вранью Путина! Факт, что Правительство ведёт Россию к истреблению.
Так как численность населения падает, даже не смотря на приток эмигрантов!
Русская нация вымирает и вырождается, смешиваясь с эмигрантами!
Факт, что военных и граждан предприятий заставляют голосовать за партию Единая Россия и Путина
ПОД СТРАХОМ УВОЛЬНЕНИЯ!
Нам не нужно Правительство, блокирующее личную жизнь, интернет, нарушающее сохранность данных.
Все эти действия финансируются за счёт народа!