Джуманджи / Jumanji (Джо Джонстон / Joe Johnston) [1995, США, приключения, фантастика, DVB] [Fullscreen] MVO (Видеосервис) + Ukr MVO

Reply to topic
DL-List and Torrent activity
Size:  3.01 GB   |    Registered:  4 years 4 months   |    Completed:  0 times

Seeder not seen: Never

 
   
 
 
Author Message

star21 ®

Gender: Female

Longevity: 4 years 4 months

Posts: 551945

Location: Екатеринбург

Post 02-Dec-2015 05:43

[Quote]

Джуманджи / Jumanji / Fullscreen
Страна: США
Жанр: приключения, фантастика
Год выпуска: 1995
Продолжительность: 01:33:53
Перевод: Профессиональный (многоголосый закадровый) Видеосервис (1995 г.)
Cубтитры: нет
Оригинальная аудиодорожка: нет
Режиссер: Джо Джонстон / Joe Johnston
В ролях: Робин Уильямс, Керстен Данст, Дэвид Элан Грайер, Эдам Ханн-Берд, Бонни Хант, Джонатан Хайд, Биби Ньювирт, Брэдли Пирс
Описание: Случайно обнаружив настольную игру со странным названием "Джуманджи", Алан Пэрриш, не зная о ее сверхъестественных свойствах, на глазах изумленной подружки переносится в джунгли. Долгие годы он находится в потустороннем мире, до тех пор, пока два ни о чем не подозревающих подростка не находят игру и не снимают волшебные чары, освобождая Алана из многолетнего плена. Теперь им предстоит решить нелегкую задачу - победить могущественную силу игры, пройти немыслимые препятствия и одержать победу над силами Магии!-Памяти великолепного актера и хорошего человека - Робина Уильямса.-Сэмпл: https://yadi.sk/i/ws4i6Go3j2rBj-Качество видео: DVB
Формат видео: TS-Видео: MPEG2 Video, 720x576, (4:3), 25fps, 3969 Kbps
Аудио 1: MPEG Audio, 48000Hz, 192kbps, stereo (2ch), Русский Многоголосый Закадровый от ВидеоСервис (VHS)
Аудио 2: MPEG Audio 48000Hz stereo 192kbps, Украинский Многоголосый Закадровый от Новый Канал

MediaInfo

General
ID : 1 (0x1)
Complete name : D:\Video\Jumanji_RUS_MVO_Videoservis_UKR_MVO_DVB_Noviy_Kanal_Full_Screen.ts
Format : MPEG-TS
File size : 3.01 GiB
Duration : 1h 33mn
Overall bit rate mode : Variable
Overall bit rate : 4 584 Kbps
Maximum Overall bit rate : 35.5 Mbps
Video
ID : 4113 (0x1011)
Menu ID : 1 (0x1)
Format : MPEG Video
Format version : Version 2
Format profile : Main@Main
Format settings, BVOP : No
Format settings, Matrix : Custom
Format settings, GOP : Variable
Codec ID : 2
Duration : 1h 33mn
Bit rate mode : Variable
Bit rate : 3 969 Kbps
Maximum bit rate : 15.0 Mbps
Width : 720 pixels
Height : 576 pixels
Display aspect ratio : 4:3
Frame rate : 25.000 fps
Standard : PAL
Color space : YUV
Chroma subsampling : 4:2:0
Bit depth : 8 bits
Scan type : Interlaced
Scan order : Top Field First
Compression mode : Lossy
Bits/(Pixel*Frame) : 0.383
Time code of first frame : 00:00:00:00
Time code source : Group of pictures header
Stream size : 2.60 GiB (87%)
Audio #1
ID : 4352 (0x1100)
Menu ID : 1 (0x1)
Format : MPEG Audio
Format version : Version 1
Format profile : Layer 2
Codec ID : 4
Duration : 1h 33mn
Bit rate mode : Constant
Bit rate : 192 Kbps
Channel count : 2 channels
Sampling rate : 48.0 KHz
Compression mode : Lossy
Stream size : 129 MiB (4%)
Language : Russian
Audio #2
ID : 4353 (0x1101)
Menu ID : 1 (0x1)
Format : MPEG Audio
Format version : Version 1
Format profile : Layer 2
Codec ID : 4
Duration : 1h 33mn
Bit rate mode : Constant
Bit rate : 192 Kbps
Channel count : 2 channels
Sampling rate : 48.0 KHz
Compression mode : Lossy
Stream size : 129 MiB (4%)
Language : Ukrainian

Отчет Видео-Родео:

D:\EX\Jumanji_UKR_MVO_DVB_Noviy_Kanal_Full_Screen.ts
Video output frames: 140817
Audio output frames: 234695
Processing time (secs): 516
Processed frames/sec: 272.90
Actual Video Bitrate: 3.76 Mbps

Сравнение с Workprint:




Сравнение с BDRip/DVDRip (одинаковые по наполнению):



Скриншот c названием фильма

To download the content you need:
1. Download and install torrent client [for Windows] or for mobile system
2. Click on [Download]
Attention.
If the test YOU are NOT a ROBOT - does not work, then You are using an outdated browser.
Install the current browser and click on [Download]

Do not work with Yandex browser. Uploading files to them is erroneous.
Security: torrent client is allowed by Kaspersky.

[en.asmlocator.ru].t4855.torrent 
Torrent: Registered [ 2015-12-02 05:40 ] · 413CE66B0C4D806F58959E19BB687A2FD0B74B8C

Download .torrent

Download

16 KB

Status: checked
Completed: 0 times
Size: 3.01 GB
terms.php
[Profile] [PM]
Display posts:    
Reply to topic

Current time is: 05-Apr 03:39

All times are UTC ± 0



You cannot post new topics in this forum
You cannot reply to topics in this forum
You cannot edit your posts in this forum
You cannot delete your posts in this forum
You cannot vote in polls in this forum
You cannot attach files in this forum
You can download files in this forum
Верим фактам, а не вранью Путина! Факт, что Правительство ведёт Россию к истреблению.
Так как численность населения падает, даже не смотря на приток эмигрантов!
Русская нация вымирает и вырождается, смешиваясь с эмигрантами!
Факт, что военных и граждан предприятий заставляют голосовать за партию Единая Россия и Путина
ПОД СТРАХОМ УВОЛЬНЕНИЯ!
Нам не нужно Правительство, блокирующее личную жизнь, интернет, нарушающее сохранность данных.
Все эти действия финансируются за счёт народа!