Бешеные псы / Reservoir Dogs (Квентин Тарантино / Quentin Tarantino) [1992, триллер, криминал, боевик, DVDRip] [Fullscreen] 2 x MVO (НТВ, Перец)

Reply to topic
DL-List and Torrent activity
Size:  1.46 GB   |    Registered:  4 years 3 months   |    Completed:  0 times

Seeder not seen: Never

 
   
 
 
Author Message

star21 ®

Gender: Female

Longevity: 4 years 4 months

Posts: 551945

Location: Екатеринбург

Post 02-Dec-2015 05:43

[Quote]

Бешеные псы / Reservoir Dogs- Страна: США
Жанр: триллер, криминал, боевик
Год выпуска: 1992
Продолжительность: 01:35:00-Перевод #1: Профессиональный (многоголосый, закадровый) НТВ [Текст читали: Андрей Ярославцев, Дмитрий Полонский и Людмила Гнилова]
Перевод #2: Профессиональный (многоголосый, закадровый) Перец [Текст читали: Алексей Борзунов, Павел Кипнис и др.]
Cубтитры: нет-Режиссер: Квентин Тарантино / Quentin Tarantino-В ролях: Харви Кейтель, Тим Рот, Стив Бушеми, Майкл Мэдсен, Крис Пенн, Лоуренс Тирни, Рэнди Брукс, Кирк Балц, Эдвард Банкер, Квентин Тарантино-Описание: Сюжет картины завязан на ограблении, после которого преступники собираются в назначенном месте — в заброшенном складе на окраине города — и пытаются выяснить, кто их подставил...
Задумав ограбить ювелирный магазин, криминальный босс Джо Кэбот собрал вместе шестерых опытных и совершенно незнакомых друг с другом преступников. Но с самого начала все пошло не так, и обычный грабеж превратился в кровавую бойню. Один за другим оставшиеся в живых грабители собираются в условленном месте встречи — на заброшенном складе. Двое из них убиты, один тяжело ранен. И они знают, что среди них — предатель, сдавший их полиции…-Сэмпл: http://multi-up.com/1066378-Качество видео:
Формат видео: AVI
Видео: 704x528 (1.33:1), 25 fps, XviD build 65 ~1804 kbps avg, 0.19 bit/pixel
Аудио #1: 48.0 KHz, AC3, 2 channels (L, R) ~ 192 kbps (НТВ)
Аудио #2: 48.0 KHz, AC3, 2 channels (L, R) ~ 192 kbps (Перец)-

Благодарности

За видео благодарим Юрист, за дорожку НТВ - Glowamy, за работу над дорожками - alex7691 и team_6strun

MediaInfo

General
Complete name : D:\Reservoir Dogs (1992).avi
Format : AVI
Format/Info : Audio Video Interleave
File size : 1.46 GiB
Duration : 1h 35mn
Overall bit rate : 2 203 Kbps
Movie name : Бешеные псы / Прощайте Псы / Reservoir Dogs [1992]
Director : Юpист
Writing application : VirtualDubMod 1.5.10.2 (build 2540/release)
Writing library : VirtualDubMod build 2540/release
Copyright : RG "All films" [rupeer.com]
Comment : «Бешеные псы» (англ. Reservoir Dogs) — культовый дебютный фильм независимого американского режиссёра Квентина Тарантино.
Video
ID : 0
Format : MPEG-4 Visual
Format profile : Advanced Simple@L5
Format settings, BVOP : 1
Format settings, QPel : No
Format settings, GMC : No warppoints
Format settings, Matrix : Custom
Codec ID : XVID
Codec ID/Hint : XviD
Duration : 1h 35mn
Bit rate : 1 805 Kbps
Width : 704 pixels
Height : 528 pixels
Display aspect ratio : 4:3
Frame rate : 25.000 fps
Color space : YUV
Chroma subsampling : 4:2:0
Bit depth : 8 bits
Scan type : Progressive
Compression mode : Lossy
Bits/(Pixel*Frame) : 0.194
Stream size : 1.20 GiB (82%)
Writing library : XviD 65
Audio #1
ID : 1
Format : AC-3
Format/Info : Audio Coding 3
Mode extension : CM (complete main)
Format settings, Endianness : Big
Codec ID : 2000
Duration : 1h 35mn
Bit rate mode : Constant
Bit rate : 192 Kbps
Channel(s) : 2 channels
Channel positions : Front: L R
Sampling rate : 48.0 KHz
Bit depth : 16 bits
Compression mode : Lossy
Stream size : 130 MiB (9%)
Alignment : Split accross interleaves
Interleave, duration : 40 ms (1.00 video frame)
Interleave, preload duration : 500 ms
Audio #2
ID : 2
Format : AC-3
Format/Info : Audio Coding 3
Mode extension : CM (complete main)
Format settings, Endianness : Big
Codec ID : 2000
Duration : 1h 35mn
Bit rate mode : Constant
Bit rate : 192 Kbps
Channel(s) : 2 channels
Channel positions : Front: L R
Sampling rate : 48.0 KHz
Bit depth : 16 bits
Compression mode : Lossy
Stream size : 130 MiB (9%)
Alignment : Split accross interleaves
Interleave, duration : 40 ms (1.00 video frame)
Interleave, preload duration : 500 ms

Скриншоты

To download the content you need:
1. Download and install torrent client [for Windows] or for mobile system
2. Click on [Download]
Attention.
If the test YOU are NOT a ROBOT - does not work, then You are using an outdated browser.
Install the current browser and click on [Download]

Do not work with Yandex browser. Uploading files to them is erroneous.
Security: torrent client is allowed by Kaspersky.

[en.asmlocator.ru].t4850.torrent 
Torrent: Registered [ 2015-12-02 05:40 ] · 74553BFCEB58108675C2533A2BB8F1398332F897

Download .torrent

Download

15 KB

Status: checked
Completed: 0 times
Size: 1.46 GB
terms.php
[Profile] [PM]
Display posts:    
Reply to topic

Current time is: 29-Mar 00:16

All times are UTC ± 0



You cannot post new topics in this forum
You cannot reply to topics in this forum
You cannot edit your posts in this forum
You cannot delete your posts in this forum
You cannot vote in polls in this forum
You cannot attach files in this forum
You can download files in this forum
Верим фактам, а не вранью Путина! Факт, что Правительство ведёт Россию к истреблению.
Так как численность населения падает, даже не смотря на приток эмигрантов!
Русская нация вымирает и вырождается, смешиваясь с эмигрантами!
Факт, что военных и граждан предприятий заставляют голосовать за партию Единая Россия и Путина
ПОД СТРАХОМ УВОЛЬНЕНИЯ!
Нам не нужно Правительство, блокирующее личную жизнь, интернет, нарушающее сохранность данных.
Все эти действия финансируются за счёт народа!