Наводнение: Кто спасет наших детей? / The Flood: Who Will Save Our Children? (Крис Томсон / Chris Thomson) [1993, США, Австралия, Драма, SATRip] MVO

Reply to topic
DL-List and Torrent activity
Size:  1.45 GB   |    Registered:  4 years 4 months   |    Completed:  0 times

Seeder not seen: 1 year 9 months

 
   
 
 
Author Message

star21 ®

Gender: Female

Longevity: 4 years 4 months

Posts: 551945

Location: Екатеринбург

Post 02-Dec-2015 05:42

[Quote]

Наводнение: Кто спасет наших детей? / The Flood: Who Will Save Our Children?
Страна: США , Австралия
Жанр: Драма
Год выпуска: 1993
Продолжительность: 1:28:44
Перевод: Профессиональный (многоголосый закадровый)
Cубтитры: нет
Режиссер: Крис Томсон / Chris Thomson
В ролях: Дэвид Лэшер, Рене О’Коннор, Роберт Маммоне, Джеки Вудборн, Тим Илстон, Kelly Rummery, Филлип Хинтон, Дэвид Франклин, Марк Фейролл, Дон Хелберт, Kim Krejus, Джо Спано, Скотт Майкл Кэмпбелл, Норм Скэггз, Эми Ван Нострэнд, Кэролайн Джиллмер, Джером Элерс, Эшли Миллер, Кейт Худ, Блэйн Уивер, Питер Хоскин, Холли Брисли, Майкл А. Гурджиан, Ванесса Корам, Лиза Риффел, Дерек Амер
Описание: В христианском молодежном лагере заканчивается заезд. Подростки собираются разъезжаться по домам. Во время отъезда начинается сильный дождь. Горная река резко наполняется водой, проезд через которую усложняется, и автобус с детьми застревает в ней. Сильный поток воды переворачивает автобус и уносит детей по течению.
Доп. информация: Дорога синхронизирована из раздачи Asyuta
Сэмпл: https://www.sendspace.com/file/61koji
Качество видео: SATRip
Формат видео: AVI
Видео: XviD MPEG-4 , 640x480 (1.33:1) ,25.000 fps , 2 142 Kbps
Аудио: AC3 , 48 kHz , 192.00 kbps avg , 2/0 (L,R) ch

MediaInfo

Complete name Наводнение Кто спасет наших детей 1993.avi
Format : AVI
Format/Info : Audio Video Interleave
File size : 1.45 GiB
Duration : 1h 28mn
Overall bit rate : 2 344 Kbps
Writing application : VirtualDubMod 1.5.10.3 | www.virtualdub-fr.org || (build 2550/release)
Writing library : VirtualDub build 35491/release
Video
ID : 0
Format : MPEG-4 Visual
Format profile : Advanced Simple@L5
Format settings, BVOP : 1
Format settings, QPel : No
Format settings, GMC : No warppoints
Format settings, Matrix : Default (MPEG)
Codec ID : XVID
Codec ID/Hint : XviD
Duration : 1h 28mn
Bit rate : 2 142 Kbps
Width : 640 pixels
Height : 480 pixels
Display aspect ratio : 4:3
Frame rate : 25.000 fps
Color space : YUV
Chroma subsampling : 4:2:0
Bit depth : 8 bits
Scan type : Progressive
Compression mode : Lossy
Bits/(Pixel*Frame) : 0.279
Stream size : 1.33 GiB (91%)
Writing library : XviD 1.2.1 (UTC 2008-12-04)
Audio
ID : 1
Format : AC-3
Format/Info : Audio Coding 3
Mode extension : CM (complete main)
Format settings, Endianness : Big
Codec ID : 2000
Duration : 1h 28mn
Bit rate mode : Constant
Bit rate : 192 Kbps
Channel(s) : 2 channels
Channel positions : Front: L R
Sampling rate : 48.0 KHz
Compression mode : Lossy
Stream size : 122 MiB (8%)
Alignment : Aligned on interleaves
Interleave, duration : 40 ms (1.00 video frame)
Interleave, preload duratio : 512 ms

To download the content you need:
1. Download and install torrent client [for Windows] or for mobile system
2. Click on [Download]
Attention.
If the test YOU are NOT a ROBOT - does not work, then You are using an outdated browser.
Install the current browser and click on [Download]

Do not work with Yandex browser. Uploading files to them is erroneous.
Security: torrent client is allowed by Kaspersky.

[en.asmlocator.ru].t4848.torrent 
Torrent: Registered [ 2015-12-02 05:40 ] · 1CFDCE61C6F80FFA15C53E79E718FA284067724C

Download .torrent

Download

15 KB

Status: checked
Completed: 0 times
Size: 1.45 GB
terms.php
[Profile] [PM]

djorh

Gender:

Longevity: 3 years 2 months

Posts: 1

Post 05-Jan-2017 18:52 (after 1 year 1 month)

[Quote]

Привет!! А есть кому раздать фильм ?
[Profile] [PM]

admin

Gender: Male

Longevity: 4 years 5 months

Posts: 196

Location: Германия Niedersachsen

Post 05-Jan-2017 19:01 (after 8 minutes)

[Quote]

Тока ждите как кто-то раскроется.
[Profile] [PM]
Display posts:    
Reply to topic

Current time is: 03-Apr 11:34

All times are UTC ± 0



You cannot post new topics in this forum
You cannot reply to topics in this forum
You cannot edit your posts in this forum
You cannot delete your posts in this forum
You cannot vote in polls in this forum
You cannot attach files in this forum
You can download files in this forum
Верим фактам, а не вранью Путина! Факт, что Правительство ведёт Россию к истреблению.
Так как численность населения падает, даже не смотря на приток эмигрантов!
Русская нация вымирает и вырождается, смешиваясь с эмигрантами!
Факт, что военных и граждан предприятий заставляют голосовать за партию Единая Россия и Путина
ПОД СТРАХОМ УВОЛЬНЕНИЯ!
Нам не нужно Правительство, блокирующее личную жизнь, интернет, нарушающее сохранность данных.
Все эти действия финансируются за счёт народа!