Чернокнижник 2: Армагеддон / Колдун 2: конец света / Warlock: The Armageddon (Энтони Хикокс / Anthony Hickox) [1993, США, Мистика, Ужасы, VHSRip] [Fullscreen] AVO (Володарский)

Reply to topic
DL-List and Torrent activity
Size:  1.37 GB   |    Registered:  4 years 4 months   |    Completed:  0 times

Seeder not seen: Never

 
   
 
 
Author Message

star21 ®

Gender: Female

Longevity: 4 years 4 months

Posts: 551945

Location: Екатеринбург

Post 02-Dec-2015 05:42

[Quote]

Чернокнижник 2: Армагеддон / Колдун 2: конец света / Warlock: The Armageddon
[Full Screen]
Страна: США
Жанр: Мистика, Ужасы
Год выпуска: 1993
Продолжительность: 01:38:04
Перевод: Авторский (одноголосый закадровый) Володарский
Cубтитры: нет
Режиссер: Энтони Хикокс /Anthony Hickox/
В ролях: Джулиан Сэндс /Julian Sands/, Крис Янг /Chris Young/, Паула Маршал /Paula Marshall/, Джоанна Пакула /Joanna Pacula/, Стив Каан /Steve Kahan/, Р.Дж. Армстронг /R.G. Armstrong/
Описание: Аннотация от alenavova
Чернокнижник, или, проще говоря, Колдун, как нетрудно догадаться, не был уничтожен в первом фильме (а мы-то обрадовались!). Он восстал из ада и снова посетил сей мир, чтобы захватить мистические камни друидов - секты, поклоняющейся деревьям (оказывается, друиды существуют и в Штатах в наши дни). У Чернокнижника есть 6 дней до солнечного затмения, когда, завладев этими камнями, он может получить власть над всем миром. В схватку с ним должны вступить молодые друиды-воины Кенни и Саманта, умершие и воскресшие вновь... Да, спецэффекты, да, мистика, да, Иоанна Пакула в небольшой роли... И все же трудно относиться к этому "сиквелу" иначе как иронически. Возраст персонажей по сравнения с первым фильмом еще более помолодел. Если так пойдет и дальше, то сражаться со злодеем будут уже детишки...
Доп. информация: Оцифровка VHS (личный архив) и получение VHSRip alenavova
Эксклюзив для rutracker.org. При размещении данного релиза на других сайтах ссылка на автора alenavova обязательна.

Релиз
Сэмпл: https://yadi.sk/i/Zm3wumbKj42TF
Качество видео: VHSRip
Формат видео: AVI
Видео: 704x528 (1.33:1), 25 fps, XviD build 50 ~1795 kbps avg, 0.19 bit/pixel
Аудио: 48 kHz, AC3 Dolby Digital, 2/0 (L,R) ch, ~192 kbps

MediaInfo

Чернокнижник-2. Конец света - Warlock The Armageddon (by alenavova).avi
Format : AVI
Format/Info : Audio Video Interleave
File size : 1.37 GiB
Duration : 1h 38mn
Overall bit rate : 1 997 Kbps
Movie name : Чернокнижник-2. Конец света - Warlock The Armageddon (by alenavova)
Director : by alenavova
Writing application : VirtualDubMod 1.5.10.3 | www.virtualdub-fr.org || (build 2550/release)
Copyright : Edich2
Comment : RuTracker.org
Video
ID : 0
Format : MPEG-4 Visual
Format profile : Advanced Simple@L5
Format settings, BVOP : 1
Format settings, QPel : No
Format settings, GMC : No warppoints
Format settings, Matrix : Default (MPEG)
Codec ID : XVID
Codec ID/Hint : XviD
Duration : 1h 38mn
Bit rate : 1 795 Kbps
Width : 704 pixels
Height : 528 pixels
Display aspect ratio : 4:3
Frame rate : 25.000 fps
Color space : YUV
Chroma subsampling : 4:2:0
Bit depth : 8 bits
Scan type : Progressive
Compression mode : Lossy
Bits/(Pixel*Frame) : 0.193
Stream size : 1.23 GiB (90%)
Writing library : XviD 1.2.1 (UTC 2008-12-04)
Audio
ID : 1
Format : AC-3
Format/Info : Audio Coding 3
Mode extension : CM (complete main)
Format settings, Endianness : Big
Codec ID : 2000
Duration : 1h 38mn
Bit rate mode : Constant
Bit rate : 192 Kbps
Channel(s) : 2 channels
Channel positions : Front: L R
Sampling rate : 48.0 KHz
Bit depth : 16 bits
Compression mode : Lossy
Stream size : 135 MiB (10%)
Alignment : Split accross interleaves
Interleave, duration : 40 ms (1.00 video frame)
Interleave, preload duration : 500 ms

Скриншоты


To download the content you need:
1. Download and install torrent client [for Windows] or for mobile system
2. Click on [Download]
Attention.
If the test YOU are NOT a ROBOT - does not work, then You are using an outdated browser.
Install the current browser and click on [Download]

Do not work with Yandex browser. Uploading files to them is erroneous.
Security: torrent client is allowed by Kaspersky.

[en.asmlocator.ru].t4845.torrent 
Torrent: Registered [ 2015-12-02 05:40 ] · ADED18B9AC7C0A9A764DBE5E7EA65811A60D2E5E

Download .torrent

Download

14 KB

Status: checked
Completed: 0 times
Size: 1.37 GB
terms.php
[Profile] [PM]
Display posts:    
Reply to topic

Current time is: 03-Apr 10:49

All times are UTC ± 0



You cannot post new topics in this forum
You cannot reply to topics in this forum
You cannot edit your posts in this forum
You cannot delete your posts in this forum
You cannot vote in polls in this forum
You cannot attach files in this forum
You can download files in this forum
Верим фактам, а не вранью Путина! Факт, что Правительство ведёт Россию к истреблению.
Так как численность населения падает, даже не смотря на приток эмигрантов!
Русская нация вымирает и вырождается, смешиваясь с эмигрантами!
Факт, что военных и граждан предприятий заставляют голосовать за партию Единая Россия и Путина
ПОД СТРАХОМ УВОЛЬНЕНИЯ!
Нам не нужно Правительство, блокирующее личную жизнь, интернет, нарушающее сохранность данных.
Все эти действия финансируются за счёт народа!