Одиссей / The Odyssey (Андрей Кончаловский / Andrey (Andrei) Konchalovskiy) [1997, Италия, Великобритания, Германия, Греция, США, Турция, DVDRip] [Full Director\'s Cut Version / Полная режиссерская версия] MVO (Ракурс) + Original Eng

Reply to topic
DL-List and Torrent activity
Size:  2.92 GB   |    Registered:  4 years 4 months   |    Completed:  0 times

Seeder not seen: Never

 
   
 
 
Author Message

star21 ®

Gender: Female

Longevity: 4 years 5 months

Posts: 551945

Location: Екатеринбург

Post 02-Dec-2015 05:42

[Quote]

Одиссей / The Odyssey

Full Director's Cut Version / Полная режиссерская версия
Страна: Италия, Великобритания, Германия, Греция, США, Турция
Студия: American Zoetrope, Beta Film, Hallmark Entertainment, KirchMedia, Mediaset, Panfilm (as Pan Film), ProSieben Media AG, Remote Camera Systems, Skai TV
Жанр: фэнтези, драма, приключения
Год выпуска: 1997
Продолжительность: 02:59:53
Перевод: Профессиональный (многоголосый закадровый) - Студия "Ракурс" по заказу "Екатеринбург Арт"
Cубтитры: нет
Оригинальная аудиодорожка: английский
Режиссер: Андрей Кончаловский / Andrey (Andrei) Konchalovskiy
В ролях: Арманд Ассанте, Грета Скакки, Изабелла Росселлини, Бернадетт Питерс, Эрик Робертс, Ирен Папас, Ерун Краббе, Джеральдин Чаплин, Кристофер Ли, Ванесса Уильямс ...
Описание: Год за годом греки сражались под стенами Трои. Тысячи воинов полегли убитыми. Никто не знал, на чьей стороне боги. Греки роптали. Тогда их хитроумный царь Одиссей придумал, как проникнуть в Трою.
Через 10 лет осады они победили. А Одиссей возгордился и бросил вызов богам. Оскорбленный Посейдон, бог морей, обрек его на вечные блуждания по волнам морей, чтобы он никогда не смог достичь берегов Итаки, не увидел сына и жену.
Доп. информация: Рип сделан из этого
[imdb]http://www.imdb.com/title/tt0118414[/imdb]--The Odyssey (1997)_DVDRip_Sample_.avi--Качество видео: DVDRip
Формат видео: AVI
Видео: 640x480 (1.33:1), 23.976 fps, XviD build 50 ~1935 kbps avg, 0.26 bit/pixel
Аудио 1: 48 kHz, AC3 Dolby Digital, 2/0 (L,R) ch, ~192 kbps, Русский
Аудио 2: 48 kHz, AC3 Dolby Digital, 2/0 (L,R) ch, ~192 kbps, Английский-
-

Награды


-
-

...из книги «3500 кинорецензий»


-
-

AviInfo

File: The Odyssey (1997)_DVDRip_.avi
Title: The Odyssey (1997)
Copyleft: Ripped_by_rjhlb777
Genre: Adventure, Fantasy, Drama
Category: TV Series
Comment: MVO (Студия "Ракурс" по заказу "Екатеринбург Арт") + Original Eng
FileSize: 2992.59 Mb ( 3 137 957 888 bytes )
Play length: 02:59:52.823 (258769 frames)
Subtitles: Not Present
Video: 640x480 (1.33:1), 23.976 fps, XviD build 50 ~1935 kbps avg, 0.26 bit/pixel
Audio #1: 48 kHz, AC3 Dolby Digital, 2/0 (L,R) ch, ~192 kbps
Audio #2: 48 kHz, AC3 Dolby Digital, 2/0 (L,R) ch, ~192 kbps

MediaInfo

General
Complete name : C:\Temp\_RELEASES_\The Odyssey (1997)_DVDRip_.avi
Format : AVI
Format/Info : Audio Video Interleave
Format profile : OpenDML
File size : 2.92 GiB
Duration : 2h 59mn
Overall bit rate : 2 326 Kbps
Movie name : The Odyssey (1997)
Genre : Adventure, Fantasy, Drama
Writing application : VirtualDubMod 1.5.10.3 | www.virtualdub-fr.org || (build 2550/release)
Original source form/Name : TV Series
Copyright : Ripped_by_rjhlb777
Comment : MVO (Студия "Ракурс" по заказу "Екатеринбург Арт") + Original Eng
Video
ID : 0
Format : MPEG-4 Visual
Format profile : Advanced Simple@L5
Format settings, BVOP : 1
Format settings, QPel : No
Format settings, GMC : No warppoints
Format settings, Matrix : Default (MPEG)
Codec ID : XVID
Codec ID/Hint : XviD
Duration : 2h 59mn
Bit rate : 1 926 Kbps
Width : 640 pixels
Height : 480 pixels
Display aspect ratio : 4:3
Frame rate : 23.976 fps
Color space : YUV
Chroma subsampling : 4:2:0
Bit depth : 8 bits
Scan type : Progressive
Compression mode : Lossy
Bits/(Pixel*Frame) : 0.262
Stream size : 2.42 GiB (83%)
Writing library : XviD 1.2.1 (UTC 2008-12-04)
Audio #1
ID : 1
Format : AC-3
Format/Info : Audio Coding 3
Mode extension : CM (complete main)
Format settings, Endianness : Big
Codec ID : 2000
Duration : 2h 59mn
Bit rate mode : Constant
Bit rate : 192 Kbps
Channel(s) : 2 channels
Channel positions : Front: L R
Sampling rate : 48.0 KHz
Compression mode : Lossy
Stream size : 247 MiB (8%)
Alignment : Split accross interleaves
Interleave, duration : 42 ms (1.00 video frame)
Interleave, preload duratio : 500 ms
Audio #2
ID : 2
Format : AC-3
Format/Info : Audio Coding 3
Mode extension : CM (complete main)
Format settings, Endianness : Big
Codec ID : 2000
Duration : 2h 59mn
Bit rate mode : Constant
Bit rate : 192 Kbps
Channel(s) : 2 channels
Channel positions : Front: L R
Sampling rate : 48.0 KHz
Compression mode : Lossy
Stream size : 247 MiB (8%)
Alignment : Split accross interleaves
Interleave, duration : 42 ms (1.00 video frame)
Interleave, preload duratio : 500 ms

Скриншоты сравнения

alexon030
http://screenshotcomparison.com/comparison/142603/picture:4

To download the content you need:
1. Download and install torrent client [for Windows] or for mobile system
2. Click on [Download]
Attention.
If the test YOU are NOT a ROBOT - does not work, then You are using an outdated browser.
Install the current browser and click on [Download]

Do not work with Yandex browser. Uploading files to them is erroneous.
Security: torrent client is allowed by Kaspersky.

[en.asmlocator.ru].t4843.torrent 
Torrent: Registered [ 2015-12-02 05:40 ] · F72D9D6181F84783F6534C5E884BFB196B873B71

Download .torrent

Download

15 KB

Status: checked
Completed: 0 times
Size: 2.92 GB
terms.php
[Profile] [PM]
Display posts:    
Reply to topic

Current time is: 08-Apr 01:05

All times are UTC ± 0



You cannot post new topics in this forum
You cannot reply to topics in this forum
You cannot edit your posts in this forum
You cannot delete your posts in this forum
You cannot vote in polls in this forum
You cannot attach files in this forum
You can download files in this forum
Верим фактам, а не вранью Путина! Факт, что Правительство ведёт Россию к истреблению.
Так как численность населения падает, даже не смотря на приток эмигрантов!
Русская нация вымирает и вырождается, смешиваясь с эмигрантами!
Факт, что военных и граждан предприятий заставляют голосовать за партию Единая Россия и Путина
ПОД СТРАХОМ УВОЛЬНЕНИЯ!
Нам не нужно Правительство, блокирующее личную жизнь, интернет, нарушающее сохранность данных.
Все эти действия финансируются за счёт народа!