Только в танцзале / Бальные танцы / Строго по правилам / Танцы без правил / Австралийское танго / Только в танцевальном зале / Strictly Ballroom (Баз Лурманн / Baz Luhrmann) [1992, Австралия, комедия, мелодрама, мюзикл, VHSRip] AVO (Василий Горчаков)

Reply to topic
DL-List and Torrent activity
Size:  1.37 GB   |    Registered:  4 years 6 months   |    Completed:  0 times
DL-List: None

Seeder not seen: Never

 
   
 
 
Author Message

star21 ®

Gender: Female

Longevity: 4 years 7 months

Posts: 551945

Location: Екатеринбург

Post 02-Dec-2015 05:42

[Quote]

Только в танцзале / Бальные танцы / Строго по правилам / Танцы без правил / Австралийское танго / Только в танцевальном зале / Strictly Ballroom
Страна: Австралия
Жанр: комедия, мелодрама, мюзикл
Год выпуска: 1992
Продолжительность: 01:31:43
Перевод: Авторский (одноголосый закадровый) Василий Горчаков
Cубтитры: нет
Режиссер: Баз Лурманн / Baz Luhrmann
В ролях: Пол Меркурио / Paul Mercurio, Тара Морис / Tara Morice, Билл Хантер / Bill Hunter, Пэт Томсон / Pat Thomson, Барри Отто / Barry Otto, Гиа Каридес / Gia Carides, Peter Whitford, John Hannan, Sonia Kruger, Kris McQuade, Pip Mushin
Описание: Аннотация от alenavova
Молодая пара - опытнейший Скотт Хэстингс и неуклюжая Франческа из группы начинающих - вихрем врывается в центр зала и... Стоп! До финала еще далеко! Вальс, самба, румба, танго и Его Величество Пасодобль!.. Фейерверк бальных танцев, которые невыносимо скучно смотреть по одной из программ советского ТВ в новогоднюю ночь, но которые совершенно потрясающе показаны в этой австралийской картине, смешавшей внутри себя признаки мюзикла, мелодрамы, комедии, психологической драмы, - вот что такое фильм "Строго по правилам" (в рамках XVIII Московского Международного кинофестиваля он демонстрировался под названием "Только в танцевальном зале"). Фильм, на который было невозможно прорваться в дни Каннского МКФ-92. Фильм, который вызывает зрительские симпатии и восторженные отзывы в самых разных странах мира.
Доп. информация: Оцифровка VHS (личный архив) и получение VHSRip alenavova
Эксклюзив для rutracker.org. При размещении данного релиза на других сайтах ссылка на автора alenavova обязательна.

Релиз
Сэмпл: https://yadi.sk/i/pn2lRL_Jj4Bpn
Качество видео: VHSRip
Формат видео: AVI
Видео: 704x528 (1.33:1), 25 fps, XviD build 50 ~1932 kbps avg, 0.21 bit/pixel
Аудио: 48 kHz, AC3 Dolby Digital, 2/0 (L,R) ch, ~192 kbps

MediaInfo

Только в танцзале - Strictly Ballroom (by alenavova).avi
Format : AVI
Format/Info : Audio Video Interleave
File size : 1.37 GiB
Duration : 1h 31mn
Overall bit rate : 2 134 Kbps
Movie name : Только в танцзале - Strictly Ballroom (by alenavova)
Director : by alenavova
Writing application : VirtualDubMod 1.5.10.3 | www.virtualdub-fr.org || (build 2550/release)
Copyright : Edich2
Comment : RuTracker.org
Video
ID : 0
Format : MPEG-4 Visual
Format profile : Advanced Simple@L5
Format settings, BVOP : 1
Format settings, QPel : No
Format settings, GMC : No warppoints
Format settings, Matrix : Default (MPEG)
Codec ID : XVID
Codec ID/Hint : XviD
Duration : 1h 31mn
Bit rate : 1 933 Kbps
Width : 704 pixels
Height : 528 pixels
Display aspect ratio : 4:3
Frame rate : 25.000 fps
Color space : YUV
Chroma subsampling : 4:2:0
Bit depth : 8 bits
Scan type : Progressive
Compression mode : Lossy
Bits/(Pixel*Frame) : 0.208
Stream size : 1.24 GiB (91%)
Writing library : XviD 1.2.1 (UTC 2008-12-04)
Audio
ID : 1
Format : AC-3
Format/Info : Audio Coding 3
Mode extension : CM (complete main)
Format settings, Endianness : Big
Codec ID : 2000
Duration : 1h 31mn
Bit rate mode : Constant
Bit rate : 192 Kbps
Channel(s) : 2 channels
Channel positions : Front: L R
Sampling rate : 48.0 KHz
Bit depth : 16 bits
Compression mode : Lossy
Stream size : 126 MiB (9%)
Alignment : Split accross interleaves
Interleave, duration : 40 ms (1.00 video frame)
Interleave, preload duration : 500 ms

Скриншоты


To download the content you need:
1. Download and install torrent client [for Windows] or for mobile system
2. Click on [Download]
Attention.
If the test YOU are NOT a ROBOT - does not work, then You are using an outdated browser.
Install the current browser and click on [Download]

Do not work with Yandex browser. Uploading files to them is erroneous.
Security: torrent client is allowed by Kaspersky.

[en.asmlocator.ru].t4841.torrent 
Torrent: Registered [ 2015-12-02 05:40 ] · 9F82D5E6ED40CFE4CD6C6B1B3DCB30CE1DC8A5F4

Download .torrent

Download

14 KB

Status: checked
Completed: 0 times
Size: 1.37 GB
terms.php
[Profile] [PM]
Display posts:    
Reply to topic

Current time is: 05-Jun 16:21

All times are UTC ± 0



You cannot post new topics in this forum
You cannot reply to topics in this forum
You cannot edit your posts in this forum
You cannot delete your posts in this forum
You cannot vote in polls in this forum
You cannot attach files in this forum
You can download files in this forum
Верим фактам, а не вранью Путина! Факт, что Правительство ведёт Россию к истреблению.
Так как численность населения падает, даже не смотря на приток эмигрантов!
Русская нация вымирает и вырождается, смешиваясь с эмигрантами!
Факт, что военных и граждан предприятий заставляют голосовать за партию Единая Россия и Путина
ПОД СТРАХОМ УВОЛЬНЕНИЯ!
Нам не нужно Правительство, блокирующее личную жизнь, интернет, нарушающее сохранность данных.
Все эти действия финансируются за счёт народа!