Смерч / Twister (Ян Де Бонт / Jan De Bont) [1996, США, боевик, драма, триллер, приключения, VHSRip] VO

Reply to topic
DL-List and Torrent activity
Size:  1.37 GB   |    Registered:  4 years 3 months   |    Completed:  0 times

Seeder not seen: Never

 
   
 
 
Author Message

star21 ®

Gender: Female

Longevity: 4 years 4 months

Posts: 551945

Location: Екатеринбург

Post 02-Dec-2015 05:42

[Quote]

Смерч / Twister
Страна: США
Жанр: боевик, драма, триллер, приключения
Год выпуска: 1996
Продолжительность: 01:52:50
Перевод: Одноголосый закадровый [помогите опознать]
Cубтитры: нет
Режиссер: Ян Де Бонт / Jan De Bont
В ролях: Хелен Хант (Dr. Jo Harding), Билл Пэкстон (Bill Harding), Кэри Элвис (Dr. Jonas Miller, Джейми Герц (Dr. Melissa Reeves), Филип Сеймур Хоффман (Dustin Davis), Лоис Смит (Meg Greene), Алан Рак (Robert «Rabbit» Nurick), Шоу Уэйлен (Allan Sanders), Скотт Томсон (Jason «Preacher» Rowe), Тодд Филд (Tim «Beltzer» Lewis)
Описание: Аннотация от alenavova:
Ураган, унесший домик Элли из "Волшебника Изумрудного города", - не выдумка! В Канзасе до сих пор бывают такие смерчи. Один из них унес отца девочки Джил в 1960-ом году. Вы поняли, что смерч - дело серьезное? Смотрите дальше! Девочка Джил выросла и придумала устройство, которое надо запустить внутрь смерча и узнать, что у него внутри. Для этого устройство надо, конечно, запустить. Так что нормальные люди удирают от урагана, а Джил с группой коллег за ураганом гоняются. Чтобы фильм не стал совсем уж производственным, у исследователей появляются конкуренты со своим аналогичным прибором. А также, для пущего "оживляжа", из города приезжает ученый Билли с молодой супругой. Погонявшись за смерчем, Билл теряет супругу и всякий к ней интерес и влюбляется в Джил, на радость всем коллегам... Но спецэффекты потрясающие, ради них и фильм снимали!
Доп. информация: Оцифровка VHS (личный архив) и получение VHSRip alenavova
Эксклюзив для rutracker.org. При размещении данного релиза на других сайтах ссылка на автора alenavova обязательна.

Релиз
Сэмпл: https://yadi.sk/i/HXK4LjnOj5XCG
Качество видео: VHSRip
Формат видео: AVI
Видео: 704x528 (1.33:1), 25 fps, XviD build 50 ~1535 kbps avg, 0.17 bit/pixel
Аудио: 48 kHz, AC3 Dolby Digital, 2/0 (L,R) ch, ~192 kbps

MediaInfo

Смерч - Twister (by alenavova).avi
Format : AVI
Format/Info : Audio Video Interleave
File size : 1.37 GiB
Duration : 1h 52mn
Overall bit rate : 1 737 Kbps
Movie name : Смерч - Twister (by alenavova)
Director : by alenavova
Writing application : VirtualDubMod 1.5.10.3 | www.virtualdub-fr.org || (build 2550/release)
Copyright : Edich2
Comment : RuTracker.org
Video
ID : 0
Format : MPEG-4 Visual
Format profile : Advanced Simple@L5
Format settings, BVOP : 1
Format settings, QPel : No
Format settings, GMC : No warppoints
Format settings, Matrix : Default (MPEG)
Codec ID : XVID
Codec ID/Hint : XviD
Duration : 1h 52mn
Bit rate : 1 536 Kbps
Width : 704 pixels
Height : 528 pixels
Display aspect ratio : 4:3
Frame rate : 25.000 fps
Color space : YUV
Chroma subsampling : 4:2:0
Bit depth : 8 bits
Scan type : Progressive
Compression mode : Lossy
Bits/(Pixel*Frame) : 0.165
Stream size : 1.21 GiB (88%)
Writing library : XviD 1.2.1 (UTC 2008-12-04)
Audio
ID : 1
Format : AC-3
Format/Info : Audio Coding 3
Mode extension : CM (complete main)
Format settings, Endianness : Big
Codec ID : 2000
Duration : 1h 52mn
Bit rate mode : Constant
Bit rate : 192 Kbps
Channel(s) : 2 channels
Channel positions : Front: L R
Sampling rate : 48.0 KHz
Bit depth : 16 bits
Compression mode : Lossy
Stream size : 155 MiB (11%)
Alignment : Split accross interleaves
Interleave, duration : 40 ms (1.00 video frame)
Interleave, preload duration : 500 ms

Скриншоты


To download the content you need:
1. Download and install torrent client [for Windows] or for mobile system
2. Click on [Download]
Attention.
If the test YOU are NOT a ROBOT - does not work, then You are using an outdated browser.
Install the current browser and click on [Download]

Do not work with Yandex browser. Uploading files to them is erroneous.
Security: torrent client is allowed by Kaspersky.

[en.asmlocator.ru].t4837.torrent 
Torrent: Registered [ 2015-12-02 05:40 ] · 34D88D72E2B654646C3B940DA95B89AE0A4418DD

Download .torrent

Download

14 KB

Status: checked
Completed: 0 times
Size: 1.37 GB
terms.php
[Profile] [PM]
Display posts:    
Reply to topic

Current time is: 28-Mar 23:29

All times are UTC ± 0



You cannot post new topics in this forum
You cannot reply to topics in this forum
You cannot edit your posts in this forum
You cannot delete your posts in this forum
You cannot vote in polls in this forum
You cannot attach files in this forum
You can download files in this forum
Верим фактам, а не вранью Путина! Факт, что Правительство ведёт Россию к истреблению.
Так как численность населения падает, даже не смотря на приток эмигрантов!
Русская нация вымирает и вырождается, смешиваясь с эмигрантами!
Факт, что военных и граждан предприятий заставляют голосовать за партию Единая Россия и Путина
ПОД СТРАХОМ УВОЛЬНЕНИЯ!
Нам не нужно Правительство, блокирующее личную жизнь, интернет, нарушающее сохранность данных.
Все эти действия финансируются за счёт народа!