Гладиатор / Gladiator (Ридли Скотт / Ridley Scott) [2000, США, приключения, боевик, мелодрама, BDRip] [Расширенная Версия / Extended Cut] MVO (Россия) + Original Eng

Reply to topic
DL-List and Torrent activity
Size:  2.84 GB   |    Registered:  4 years 3 months   |    Completed:  0 times

Seeder not seen: 3 years 6 months

 
   
 
 
Author Message

star21 ®

Gender: Female

Longevity: 4 years 4 months

Posts: 551945

Location: Екатеринбург

Post 02-Dec-2015 05:42

[Quote]

Гладиатор / Gladiator / Расширенная Версия / Extended Cut
Год выпуска: 2000
Страна: США, Великобритания
Жанр: приключения, боевик, мелодрама
Продолжительность: 02:50:56
Перевод: Профессиональный (многоголосый закадровый) - Россия
Cубтитры: нет
Оригинальная аудиодорожка: английский
Режиссер: Ридли Скотт / Ridley Scott
В ролях: Рассел Кроу (Maximus), Хоакин Феникс (Commodus), Конни Нильсен (Lucilla), Оливер Рид (Proximo), Ричард Харрис (Marcus Aurelius), Дерек Джекоби (Gracchus), Джимон Хонсу (Juba), Дэвид Скофилд (Falco), Джон Шрэпнел (Gaius), Томас Арана (Quintus)-Мировая премьера: 1 мая 2000-Описание: В великой Римской империи не было военачальника, равного генералу Максимусу. Непобедимые легионы, которыми командовал этот благородный воин, боготворили его и могли последовать за ним даже в ад. Но случилось так, что отважный Максимус, готовый сразиться с любым противником в честном бою, оказался бессилен против вероломных придворных интриг. Генерала предали и приговорили к смерти. Чудом избежав гибели, Максимус становится гладиатором. Быстро снискав себе славу в кровавых поединках, он оказывается в знаменитом римском Колизее, на арене которого он встретится в смертельной схватке со своим заклятым врагом…-Огромная благодарность:
- .
- собственная запись перевода с телеканала Россия в начале 2000-х годов через видеомагнитофон и оцифровка с видеокассеты.
- синхронизация перевода.-Данный перевод на трекере появляется впервые.
Поскольку он был только под театральную версию фильма, то в расширенной версии он имеет несколько вставок дубляжа в не-показанных на ТВ эпизодах с речью.-На русский язык фильм озвучен по заказу телеканала Россия в 2003 году.
Текст читают Александр Котов, Олег Форостенко и др.-Рейтинг

MPAA: R - Лицам до 17 лет обязательно присутствие взрослого.-Качество видео: BDRip
Формат видео: AVI -> //СЭМПЛ//
Видео: XviD, 720x304 (2,35:1), 23.976 fps, 1982 kbps avg
Аудио:
1 - 48 khz, AC3 Dolby Digital, 2/0 (L,R) ch, ~192 kbps [Россия] VHSRip
2 - 48 khz, AC3 Dolby Digital, 2/0 (L,R) ch, ~192 kbps [Английский]-Обновление релиза от 14.09.2015. Причина:
Театральная версия заменена на расширенную, с новым видеокассетным, но качественным (чем в прошлый раз) переводом телеканала Россия.
Просьба перескачать торрент!

MediaInfo

General
Complete name : E:\Торрент Файлы\Будущие Релизы на Трекере\2.05 - 2.20 и более гб\Гладиатор [Расширенная Версия] (Россия + Оригинал).avi
Format : AVI
Format/Info : Audio Video Interleave
Format profile : OpenDML
File size : 2.84 GiB
Duration : 2h 50mn
Overall bit rate : 2 381 Kbps
Movie name : Гладиатор / Gladiator (2000) Extended Cut
Director : $in0bi (Blu-Ray/CEE/Remastered)
Writing application : VirtualDubMod 1.5.10.3 | www.virtualdub-fr.org || (build 2550/release)
Writing library : VirtualDubMod build 2550/release
Video
ID : 0
Format : MPEG-4 Visual
Format profile : Advanced Simple@L5
Format settings, BVOP : 2
Format settings, QPel : No
Format settings, GMC : No warppoints
Format settings, Matrix : Custom
Codec ID : XVID
Codec ID/Hint : XviD
Duration : 2h 50mn
Bit rate : 1 982 Kbps
Width : 720 pixels
Height : 304 pixels
Display aspect ratio : 2.35:1
Frame rate : 23.976 fps
Color space : YUV
Chroma subsampling : 4:2:0
Bit depth : 8 bits
Scan type : Progressive
Compression mode : Lossy
Bits/(Pixel*Frame) : 0.378
Stream size : 2.37 GiB (83%)
Writing library : XviD 65
Audio #1
ID : 1
Format : AC-3
Format/Info : Audio Coding 3
Mode extension : CM (complete main)
Format settings, Endianness : Big
Codec ID : 2000
Duration : 2h 50mn
Bit rate mode : Constant
Bit rate : 192 Kbps
Channel(s) : 2 channels
Channel positions : Front: L R
Sampling rate : 48.0 KHz
Compression mode : Lossy
Stream size : 235 MiB (8%)
Alignment : Split accross interleaves
Interleave, duration : 42 ms (1.00 video frame)
Interleave, preload duratio : 500 ms
Audio #2
ID : 2
Format : AC-3
Format/Info : Audio Coding 3
Mode extension : CM (complete main)
Format settings, Endianness : Big
Codec ID : 2000
Duration : 2h 50mn
Bit rate mode : Constant
Bit rate : 192 Kbps
Channel(s) : 2 channels
Channel positions : Front: L R
Sampling rate : 48.0 KHz
Compression mode : Lossy
Stream size : 235 MiB (8%)
Alignment : Split accross interleaves
Interleave, duration : 42 ms (1.00 video frame)
Interleave, preload duratio : 500 ms

Скриншот c названием фильма

Скриншоты

To download the content you need:
1. Download and install torrent client [for Windows] or for mobile system
2. Click on [Download]
Attention.
If the test YOU are NOT a ROBOT - does not work, then You are using an outdated browser.
Install the current browser and click on [Download]

Do not work with Yandex browser. Uploading files to them is erroneous.
Security: torrent client is allowed by Kaspersky.

[en.asmlocator.ru].t4836.torrent 
Torrent: Registered [ 2015-12-02 05:40 ] · 255AE53C6152D440E2FA33B2CA2396AE61BDE014

Download .torrent

Download

15 KB

Status: checked
Completed: 0 times
Size: 2.84 GB
terms.php
[Profile] [PM]
Display posts:    
Reply to topic

Current time is: 31-Mar 19:15

All times are UTC ± 0



You cannot post new topics in this forum
You cannot reply to topics in this forum
You cannot edit your posts in this forum
You cannot delete your posts in this forum
You cannot vote in polls in this forum
You cannot attach files in this forum
You can download files in this forum
Верим фактам, а не вранью Путина! Факт, что Правительство ведёт Россию к истреблению.
Так как численность населения падает, даже не смотря на приток эмигрантов!
Русская нация вымирает и вырождается, смешиваясь с эмигрантами!
Факт, что военных и граждан предприятий заставляют голосовать за партию Единая Россия и Путина
ПОД СТРАХОМ УВОЛЬНЕНИЯ!
Нам не нужно Правительство, блокирующее личную жизнь, интернет, нарушающее сохранность данных.
Все эти действия финансируются за счёт народа!