Лжец, лжец / Liar Liar (Том Шэдьяк / Tom Shadyac) [1997, США, комедия, фэнтези, VHSRip] [Fullscreen] MVO (Премьер)

Reply to topic
DL-List and Torrent activity
Size:  1.37 GB   |    Registered:  4 years 3 months   |    Completed:  0 times

Seeder not seen: Never

 
   
 
 
Author Message

star21 ®

Gender: Female

Longevity: 4 years 4 months

Posts: 551945

Location: Екатеринбург

Post 02-Dec-2015 05:42

[Quote]

Лжец, лжец / Liar Liar
[Full Screen]
Страна: CША
Жанр: комедия, фэнтези
Год выпуска: 1997
Продолжительность: 01:22:47
Перевод: Профессиональный (многоголосый закадровый) Премьер
Cубтитры: нет
Режиссер: Том Шэдьяк / Tom Shadyac
В ролях: Джим Керри, Мора Тирни, Джастин Купер, Кэри Элвис, Энн Хейни, Аманда Донохью, Джейсон Бернард cт,, Свузи Курц, Митч Райан ст., Кристофер Майер, Эрик Пирпойнт, Рэндолл 'Текс' Кобб, Чери Отери, Бен Лемон, Джэррэд Пол, Мэриэнн Мюллерлайле, Криста Аллен, Стефен Джеймс Карвер, Дон Кифер, Пол Роуч, Рэнди Оглсби, Чарли Делл, СВ Фишер, Джим Янсен, Терри Роадс, Майкл Леопард, Чарлз Уокер, Эд Тротта, Эрнест Перри мл., Скип О'Брайен, Тони Каррейро, Аманда Карлин, Энтони Ли, Кристин Авила, Хоуп Аллен, Кэрри Армстронг
Описание: Комик Джим Керри, продемонстрировавший свои блистательные эксцентрические способности в "Маске" в роли робкого банковского служащего, на этот раз играет заядлого лжеца, который вынужден говорить правду в течение суток: в день рождения его сына чудесным образом исполняется заветное желание мальчика. Удачливый преуспевающий адвокат Флетчер Рид неожиданно терпит полный крах, когда обнаруживается, что величайшее его достояние - его красноречие, его "язык без костей" - может стать вдруг величайшей помехой в жизни.
Доп. информация: Оцифровка лицензионной VHS (личный архив) и получение VHSRip alenavova
Эксклюзив для rutracker.org. При размещении данного релиза на других сайтах ссылка на автора alenavova обязательна.

Релиз
Сэмпл: https://yadi.sk/i/Ef1aNq72j6LgN
Качество видео: VHSRip
Формат видео: AVI
Видео: 704x528 (1.33:1), 25 fps, XviD build 50 ~2162 kbps avg, 0.23 bit/pixel
Аудио: 48 kHz, AC3 Dolby Digital, 2/0 (L,R) ch, ~192 kbps

MediaInfo

Лжец, лжец - Liar Liar (by alenavova).avi
Format : AVI
Format/Info : Audio Video Interleave
File size : 1.37 GiB
Duration : 1h 22mn
Overall bit rate : 2 364 Kbps
Movie name : Лжец, лжец - Liar Liar (by alenavova)
Director : by alenavova
Writing application : VirtualDubMod 1.5.10.3 | www.virtualdub-fr.org || (build 2550/release)
Copyright : Edich2
Comment : RuTracker.org
Video
ID : 0
Format : MPEG-4 Visual
Format profile : Advanced Simple@L5
Format settings, BVOP : 1
Format settings, QPel : No
Format settings, GMC : No warppoints
Format settings, Matrix : Default (MPEG)
Codec ID : XVID
Codec ID/Hint : XviD
Duration : 1h 22mn
Bit rate : 2 163 Kbps
Width : 704 pixels
Height : 528 pixels
Display aspect ratio : 4:3
Frame rate : 25.000 fps
Color space : YUV
Chroma subsampling : 4:2:0
Bit depth : 8 bits
Scan type : Progressive
Compression mode : Lossy
Bits/(Pixel*Frame) : 0.233
Stream size : 1.25 GiB (91%)
Writing library : XviD 1.2.1 (UTC 2008-12-04)
Audio
ID : 1
Format : AC-3
Format/Info : Audio Coding 3
Mode extension : CM (complete main)
Format settings, Endianness : Big
Codec ID : 2000
Duration : 1h 22mn
Bit rate mode : Constant
Bit rate : 192 Kbps
Channel(s) : 2 channels
Channel positions : Front: L R
Sampling rate : 48.0 KHz
Bit depth : 16 bits
Compression mode : Lossy
Stream size : 114 MiB (8%)
Alignment : Split accross interleaves
Interleave, duration : 40 ms (1.00 video frame)
Interleave, preload duration : 500 ms

Скриншоты


To download the content you need:
1. Download and install torrent client [for Windows] or for mobile system
2. Click on [Download]
Attention.
If the test YOU are NOT a ROBOT - does not work, then You are using an outdated browser.
Install the current browser and click on [Download]

Do not work with Yandex browser. Uploading files to them is erroneous.
Security: torrent client is allowed by Kaspersky.

[en.asmlocator.ru].t4835.torrent 
Torrent: Registered [ 2015-12-02 05:40 ] · 7C2C8F2D98BAD9FECCE4AF7CDD9CEEEFCB47D4EF

Download .torrent

Download

14 KB

Status: checked
Completed: 0 times
Size: 1.37 GB
terms.php
[Profile] [PM]
Display posts:    
Reply to topic

Current time is: 29-Mar 18:30

All times are UTC ± 0



You cannot post new topics in this forum
You cannot reply to topics in this forum
You cannot edit your posts in this forum
You cannot delete your posts in this forum
You cannot vote in polls in this forum
You cannot attach files in this forum
You can download files in this forum
Верим фактам, а не вранью Путина! Факт, что Правительство ведёт Россию к истреблению.
Так как численность населения падает, даже не смотря на приток эмигрантов!
Русская нация вымирает и вырождается, смешиваясь с эмигрантами!
Факт, что военных и граждан предприятий заставляют голосовать за партию Единая Россия и Путина
ПОД СТРАХОМ УВОЛЬНЕНИЯ!
Нам не нужно Правительство, блокирующее личную жизнь, интернет, нарушающее сохранность данных.
Все эти действия финансируются за счёт народа!