Эйс Вентура 2: Когда зовет природа / Ace Ventura: When Nature Calls (Стив Одекерк / Steve Oedekerk) [1995, США, комедия, детектив, приключения, VHSRip] DVO (EA)

Reply to topic
DL-List and Torrent activity
Size:  1.37 GB   |    Registered:  4 years 7 months   |    Completed:  0 times

Seeder not seen: Never

 
   
 
 
Author Message

star21 ®

Gender: Female

Longevity: 4 years 8 months

Posts: 551945

Location: Екатеринбург

Post 02-Dec-2015 05:42

[Quote]

Эйс Вентура 2: Когда зовет природа / Ace Ventura: When Nature Calls
Страна: США
Жанр: комедия, детектив, приключения
Год выпуска: 1995
Продолжительность: 01:30:02
Перевод: Профессиональный (двухголосый закадровый) EA
Cубтитры: нет
Режиссер: Стив Одекерк / Steve Oedekerk
В ролях: Джим Керри, Иэн МакНис, Саймон Кэллоу, Боб Гантон, Софи Оконедо, Брюс Спенс, Мейнард Эзиаши, Адевале Акинойе-Агбаже, Томми Дэвидсон, Дэймон Стандиферис
Описание: Место действия — Африка. Знаменитый детектив Эйс Вентура, единственный в мире специалист по розыску пропавших домашних любимцев, снова в деле. На этот раз Эйс должен найти Шикаку — священное животное племени Вачати. Без Шикаки не может состояться свадьба дочери вождя племени Вачати и сына вождя воинственного племени Вачуту. Если Эйс провалит задание, начнется межплеменная война. Но Эйс Вентура не из тех, кто отступает перед трудностями. В поисках священной Шикаки он сражается с аллигаторами, приручает слонов, подражает обезьянам, качается на лианах, ходит по раскаленным углям, вылезает, к ужасу семьи американских туристов, из задницы носорога и ставит «на уши» всю Африку.
Доп. информация: Оцифровка лицензионной VHS (личный архив) и получение VHSRip alenavova
Эксклюзив для rutracker.org. При размещении данного релиза на других сайтах ссылка на автора alenavova обязательна.

Релиз
Сэмпл: https://yadi.sk/i/sw6hrhjqj6N3R
Качество видео: VHSRip
Формат видео: AVI
Видео: 704x528 (1.33:1), 25 fps, XviD build 50 ~1972 kbps avg, 0.21 bit/pixel
Аудио: 48 kHz, AC3 Dolby Digital, 2/0 (L,R) ch, ~192 kbps

MediaInfo

Эйс Вентура 2 Когда зовет природа - Ace Ventura When Nature Calls [by alenavova].avi
Format : AVI
Format/Info : Audio Video Interleave
File size : 1.37 GiB
Duration : 1h 30mn
Overall bit rate : 2 174 Kbps
Movie name : Эйс Вентура 2 Когда зовет природа - Ace Ventura When Nature Calls [by alenavova]
Director : by alenavova
Writing application : VirtualDubMod 1.5.10.3 | www.virtualdub-fr.org || (build 2550/release)
Copyright : Edich2
Comment : RuTracker.org
Video
ID : 0
Format : MPEG-4 Visual
Format profile : Advanced Simple@L5
Format settings, BVOP : 1
Format settings, QPel : No
Format settings, GMC : No warppoints
Format settings, Matrix : Default (MPEG)
Codec ID : XVID
Codec ID/Hint : XviD
Duration : 1h 30mn
Bit rate : 1 972 Kbps
Width : 704 pixels
Height : 528 pixels
Display aspect ratio : 4:3
Frame rate : 25.000 fps
Color space : YUV
Chroma subsampling : 4:2:0
Bit depth : 8 bits
Scan type : Progressive
Compression mode : Lossy
Bits/(Pixel*Frame) : 0.212
Stream size : 1.24 GiB (91%)
Writing library : XviD 1.2.1 (UTC 2008-12-04)
Audio
ID : 1
Format : AC-3
Format/Info : Audio Coding 3
Mode extension : CM (complete main)
Format settings, Endianness : Big
Codec ID : 2000
Duration : 1h 30mn
Bit rate mode : Constant
Bit rate : 192 Kbps
Channel(s) : 2 channels
Channel positions : Front: L R
Sampling rate : 48.0 KHz
Bit depth : 16 bits
Compression mode : Lossy
Stream size : 124 MiB (9%)
Alignment : Split accross interleaves
Interleave, duration : 40 ms (1.00 video frame)
Interleave, preload duration : 500 ms

Скриншоты


To download the content you need:
1. Download and install torrent client [for Windows] or for mobile system
2. Click on [Download]
Attention.
If the test YOU are NOT a ROBOT - does not work, then You are using an outdated browser.
Install the current browser and click on [Download]

Do not work with Yandex browser. Uploading files to them is erroneous.
Security: torrent client is allowed by Kaspersky.

[en.asmlocator.ru].t4833.torrent 
Torrent: Registered [ 2015-12-02 05:40 ] · FD7F83E1535109206DABBE3218884E69F9BF60D1

Download .torrent

Download

14 KB

Status: checked
Completed: 0 times
Size: 1.37 GB
terms.php
[Profile] [PM]
Display posts:    
Reply to topic

Current time is: 11-Jul 19:56

All times are UTC ± 0



You cannot post new topics in this forum
You cannot reply to topics in this forum
You cannot edit your posts in this forum
You cannot delete your posts in this forum
You cannot vote in polls in this forum
You cannot attach files in this forum
You can download files in this forum
Верим фактам, а не вранью Путина! Факт, что Правительство ведёт Россию к истреблению.
Так как численность населения падает, даже не смотря на приток эмигрантов!
Русская нация вымирает и вырождается, смешиваясь с эмигрантами!
Факт, что военных и граждан предприятий заставляют голосовать за партию Единая Россия и Путина
ПОД СТРАХОМ УВОЛЬНЕНИЯ!
Нам не нужно Правительство, блокирующее личную жизнь, интернет, нарушающее сохранность данных.
Все эти действия финансируются за счёт народа!