Приговор Времени / Past Perfect (Джонатан Хип / Jonathan Heap) [1996, США, Канада, фантастика, боевик, триллер, драма, DVDRip] DVO (REN-TV)

Reply to topic
DL-List and Torrent activity
Size:  1.37 GB   |    Registered:  4 years 4 months   |    Completed:  0 times

Seeder not seen: Never

 
   
 
 
Author Message

star21 ®

Gender: Female

Longevity: 4 years 4 months

Posts: 551945

Location: Екатеринбург

Post 02-Dec-2015 05:42

[Quote]

Приговор Времени / Past Perfect-Стоит ли будущее того, чтобы за него умирать?
- Год выпуска: 1996
Страна: США, Канада
Жанр: фантастика, боевик, триллер, драма
Продолжительность: 01:28:39
Перевод: Профессиональный (двухголосый закадровый) - REN-TV
Cубтитры: нет
Режиссер: Джонатан Хип / Jonathan Heap
В ролях: Эрик Робертс (Dylan Cooper), Лори Холден (Ally Marsey), Ник Манкузо (Stone), Сол Рубинек (Bookkeeper), Марси Меллиш (Zoe), Марк Хилдрет (Rusty Walker), Йи Джи Цо (Kim Li «Blade» Cho), Эмили Перкинс (Karen «Shy Girl» Daniels), Тай Рунян (Sid «Skull» Vincent), Питер Хэнлон (Lance Milleti)-Мировая премьера: 11 октября 1996-Описание: Ограбление, непредумышленные и умышленные убийства, торговля наркотиками и оружием — вот перечень занятий четверки малолетних преступников, но им нет еще 16 лет, и все пока сходит с рук. Полицейский Дилан Купер пытается выйти на след банды, поймав одного из мальчишек, Расти Уокера. Пацан держит рот на замке, но имена членов банды Дилан видит на татуированном плече Расти. В погоне за ребятами Купера все время кто-то обережает, и он находит лишь трупы юнцов. А действуют, между прочим, полицейские из будущего, решившие разобраться с «плохими ребятами» без суда и следствия, не давая им ни единого шанса. Дилан Купер сам в молодости был не пай мальчиком, поэтому, поймав Расти, он не позволяет пришельцам ликвидировать парня и, дав ему шанс, меняет его судьбу.-Исходник видео: с Рутора-Благодарности:
- собственная запись перевода с телеканала REN-TV в начале 2000-х годов через видеомагнитофон и оцифровка с видеокассеты.
- синхронизация перевода.-Данный перевод на трекере появляется впервые.
На русский язык фильм озвучен телекомпанией REN-TV.
Текст читают Игорь Тарадайкин и Елена Борзунова.-Рейтинг

MPAA: R - Лицам до 17 лет обязательно присутствие взрослого.-Качество видео: DVDRip
Формат видео: AVI -> //SAMPLE//
Видео: XviD, 704x528 (4:3), 25.000 fps, 2010 kbps avg
Аудио:
1 - 48 khz, AC3 Dolby Digital, 2/0 (L,R) ch, ~192 kbps [REN-TV] VHSRip

MediaInfo

General
Complete name : E:\Торрент Файлы\Будущие Релизы на Трекере\1.35 - 1.46 и более гб\Приговор Времени (REN-TV).avi
Format : AVI
Format/Info : Audio Video Interleave
File size : 1.37 GiB
Duration : 1h 28mn
Overall bit rate : 2 212 Kbps
Writing application : VirtualDubMod 1.5.10.3 | www.virtualdub-fr.org || (build 2550/release)
Writing library : VirtualDubMod build 2550/release
Video
ID : 0
Format : MPEG-4 Visual
Format profile : Advanced Simple@L5
Format settings, BVOP : 1
Format settings, QPel : No
Format settings, GMC : No warppoints
Format settings, Matrix : Custom
Codec ID : XVID
Codec ID/Hint : XviD
Duration : 1h 28mn
Bit rate : 2 010 Kbps
Width : 704 pixels
Height : 528 pixels
Display aspect ratio : 4:3
Frame rate : 25.000 fps
Color space : YUV
Chroma subsampling : 4:2:0
Bit depth : 8 bits
Scan type : Progressive
Compression mode : Lossy
Bits/(Pixel*Frame) : 0.216
Stream size : 1.25 GiB (91%)
Writing library : XviD 64
Audio
ID : 1
Format : AC-3
Format/Info : Audio Coding 3
Mode extension : CM (complete main)
Format settings, Endianness : Big
Codec ID : 2000
Duration : 1h 28mn
Bit rate mode : Constant
Bit rate : 192 Kbps
Channel(s) : 2 channels
Channel positions : Front: L R
Sampling rate : 48.0 KHz
Compression mode : Lossy
Stream size : 122 MiB (9%)
Alignment : Split accross interleaves
Interleave, duration : 40 ms (1.00 video frame)
Interleave, preload duratio : 500 ms
Language : Russian

Скриншот c названием фильма

Скриншоты

To download the content you need:
1. Download and install torrent client [for Windows] or for mobile system
2. Click on [Download]
Attention.
If the test YOU are NOT a ROBOT - does not work, then You are using an outdated browser.
Install the current browser and click on [Download]

Do not work with Yandex browser. Uploading files to them is erroneous.
Security: torrent client is allowed by Kaspersky.

[en.asmlocator.ru].t4831.torrent 
Torrent: Registered [ 2015-12-02 05:40 ] · DF1E1D0978EF27E663E30308612ECEDAC694D20B

Download .torrent

Download

14 KB

Status: checked
Completed: 0 times
Size: 1.37 GB
terms.php
[Profile] [PM]
Display posts:    
Reply to topic

Current time is: 04-Apr 15:11

All times are UTC ± 0



You cannot post new topics in this forum
You cannot reply to topics in this forum
You cannot edit your posts in this forum
You cannot delete your posts in this forum
You cannot vote in polls in this forum
You cannot attach files in this forum
You can download files in this forum
Верим фактам, а не вранью Путина! Факт, что Правительство ведёт Россию к истреблению.
Так как численность населения падает, даже не смотря на приток эмигрантов!
Русская нация вымирает и вырождается, смешиваясь с эмигрантами!
Факт, что военных и граждан предприятий заставляют голосовать за партию Единая Россия и Путина
ПОД СТРАХОМ УВОЛЬНЕНИЯ!
Нам не нужно Правительство, блокирующее личную жизнь, интернет, нарушающее сохранность данных.
Все эти действия финансируются за счёт народа!