Клептомания / Kleptomania (Дон Бойд / Don Boyd) [1995, США, Криминальная драма, VHSRip] AVO (Михаил Иванов)

Reply to topic
DL-List and Torrent activity
Size:  1.37 GB   |    Registered:  4 years 3 months   |    Completed:  0 times

Seeder not seen: Never

 
   
 
 
Author Message

star21 ®

Gender: Female

Longevity: 4 years 4 months

Posts: 551945

Location: Екатеринбург

Post 02-Dec-2015 05:42

[Quote]

Клептомания / Kleptomania
Страна: США
Жанр: Криминальная драма
Год выпуска: 1995
Продолжительность: 01:29:02
Перевод: Авторский (одноголосый закадровый) Михаил Иванов
Cубтитры: нет
Режиссер: Дон Бойд / Don Boyd
В ролях: Эми Ирвинг, Пэтси Кензит, Виктор Гарбер, Бретт Снелл, Кристин Террелл, Джули Р. Ли, Грегг Бэйкер, Дэна Зельцер, Wendy Laman, Дэн Такер
Описание: Богатая дама Эми Ирвинг страдает клептоманией, и у нее не все ладится с мужем. В магазине она видит, как профессиональная воровка стащила драгоценность и предупреждает ее, что охрана засекла это. После этого она упрашивает новую «подружку» научить ее этому тонкому ремеслу. У воровки за плечами душераздирающая история - ее дружка, занимавшегося угоном машин, повесили ребята, которым он задолжал деньги. Когда богатую Эми замели по пьянке за воровством в магазине, воровка выкупила ее, но потребовала, чтобы та помогла ей отомстить за смерть любимого. Сделан фильм очень слабо, но с претензией. (М. Иванов)
Доп. информация: Дорожка с М. Ивановым ремастерирована, синхронизирована, преобразована в СТЕРЕО и наложена ale_x2008 при помощи iZotope RX2, Sony Vegas и VirtualDubMod.
За оцифрованную с VHS дорожку благодарим - Анна57

Релиз
Сэмпл: https://yadi.sk/i/b9J0-h6Kj7gdL
Качество видео: VHSRip
Формат видео: AVI
Видео: XviD build 50, 704x512 (1.38:1), 23.976 fps, 1996 kbps avg, 0.23 bit/pixel
Аудио: AC3 Dolby Digital, 48000Hz, 2/0 (L,R) ch (stereo), 192.00 kbps avg

MediaInfo

Клептомания - Kleptomania [by ale_x2008].avi
Format : AVI
Format/Info : Audio Video Interleave
File size : 1.37 GiB
Duration : 1h 29mn
Overall bit rate : 2 198 Kbps
Movie name : Клептомания - Kleptomania [by ale_x2008]
Director : by ale_x2008
Writing application : VirtualDubMod 1.5.10.3 (build 2550/release)
Copyright : Edich2
Comment : RuTracker.org
Video
ID : 0
Format : MPEG-4 Visual
Format profile : Advanced Simple@L5
Format settings, BVOP : 1
Format settings, QPel : No
Format settings, GMC : No warppoints
Format settings, Matrix : Default (MPEG)
Codec ID : XVID
Codec ID/Hint : XviD
Duration : 1h 29mn
Bit rate : 1 997 Kbps
Width : 704 pixels
Height : 512 pixels
Display aspect ratio : 1.375
Frame rate : 23.976 fps
Color space : YUV
Chroma subsampling : 4:2:0
Bit depth : 8 bits
Scan type : Progressive
Compression mode : Lossy
Bits/(Pixel*Frame) : 0.231
Stream size : 1.24 GiB (91%)
Writing library : XviD 1.2.1 (UTC 2008-12-04)
Audio
ID : 1
Format : AC-3
Format/Info : Audio Coding 3
Mode extension : CM (complete main)
Format settings, Endianness : Big
Codec ID : 2000
Duration : 1h 29mn
Bit rate mode : Constant
Bit rate : 192 Kbps
Channel(s) : 2 channels
Channel positions : Front: L R
Sampling rate : 48.0 KHz
Bit depth : 16 bits
Compression mode : Lossy
Stream size : 122 MiB (9%)
Alignment : Split accross interleaves
Interleave, duration : 42 ms (1.00 video frame)
Interleave, preload duration : 500 ms

Скриншоты



To download the content you need:
1. Download and install torrent client [for Windows] or for mobile system
2. Click on [Download]
Attention.
If the test YOU are NOT a ROBOT - does not work, then You are using an outdated browser.
Install the current browser and click on [Download]

Do not work with Yandex browser. Uploading files to them is erroneous.
Security: torrent client is allowed by Kaspersky.

[en.asmlocator.ru].t4829.torrent 
Torrent: Registered [ 2015-12-02 05:40 ] · 21700B83FD877A5EACA70FE7F6054B92F4BF7559

Download .torrent

Download

14 KB

Status: checked
Completed: 0 times
Size: 1.37 GB
terms.php
[Profile] [PM]
Display posts:    
Reply to topic

Current time is: 31-Mar 20:04

All times are UTC ± 0



You cannot post new topics in this forum
You cannot reply to topics in this forum
You cannot edit your posts in this forum
You cannot delete your posts in this forum
You cannot vote in polls in this forum
You cannot attach files in this forum
You can download files in this forum
Верим фактам, а не вранью Путина! Факт, что Правительство ведёт Россию к истреблению.
Так как численность населения падает, даже не смотря на приток эмигрантов!
Русская нация вымирает и вырождается, смешиваясь с эмигрантами!
Факт, что военных и граждан предприятий заставляют голосовать за партию Единая Россия и Путина
ПОД СТРАХОМ УВОЛЬНЕНИЯ!
Нам не нужно Правительство, блокирующее личную жизнь, интернет, нарушающее сохранность данных.
Все эти действия финансируются за счёт народа!