Путь Карлито / Carlito\'s Way (Брайан Де Пальма / Brian De Palma) [1993, США, драма, криминал, BDRip] DVO (НТВ)

Reply to topic
DL-List and Torrent activity
Size:  1.45 GB   |    Registered:  4 years 3 months   |    Completed:  0 times

Seeder not seen: Never

 
   
 
 
Author Message

star21 ®

Gender: Female

Longevity: 4 years 4 months

Posts: 551945

Location: Екатеринбург

Post 02-Dec-2015 05:42

[Quote]

Путь Карлито / Carlito's Way
Год выпуска: 1993
Страна: США
Жанр: драма, криминал
Продолжительность: 02:24:05
Перевод: Профессиональный (двухголосый закадровый) - НТВ
Cубтитры: нет
Режиссер: Брайан Де Пальма / Brian De Palma
В ролях: Аль Пачино (Carlito), Шон Пенн (Kleinfeld), Пенелопа Энн Миллер (Gail), Джон Легуизамо (Benny Blanco), Ингрид Рождерс (Steffie), Луис Гусман (Pachanga), Джеймс Ребхорн (Norwalk), Джозеф Сираво (Vinnie Taglialucci), Вигго Мортенсен (Lalin), Ричард Форонджи (Pete Amadesso)-Мировая премьера: 12 ноября 1993-Описание: 70-е годы. Крупный наркоделец Карлито Бриганте вышел из тюрьмы, где отбыл пять лет. Теперь, возвращаясь в испанский квартал Нью-Йорка к любимой женщине, он хочет все бросить и начать честную жизнь. Однако криминальное прошлое и просьба близкого друга, адвоката Клейнфилда, ввязавшегося в опасную авантюру, неудержимо тянут Карлито в пучину гибели…-Исходник видео: Carlito's Way (1993) 1080p BrRip x264-Благодарности:
- собственная запись перевода с телеканала НТВ в конце 90-х годов через видеомагнитофон и оцифровка с видеокассеты.
- синхронизация перевода.-Данный перевод на трекере появляется впервые.
На русский язык фильм озвучен телекомпанией НТВ.
Текст читают Игорь Копченко, Александр Белый и Анна Каменкова.-Рейтинг

MPAA: R - Лицам до 17 лет обязательно присутствие взрослого.-Качество видео: BDRip
Формат видео: AVI -> //SAMPLE//
Видео: XviD, 720x304 (2.35:1), 23.976 fps, 1243 kbps avg
Аудио:
1 - 48 khz, AC3 Dolby Digital, 2/0 (L,R) ch, ~192 kbps [НТВ] VHSRip

MediaInfo

General
Complete name : E:\Торрент Файлы\Будущие Релизы на Трекере\1.35 - 1.46 и более гб\Путь Карлито (НТВ).avi
Format : AVI
Format/Info : Audio Video Interleave
File size : 1.45 GiB
Duration : 2h 24mn
Overall bit rate : 1 444 Kbps
Writing application : VirtualDubMod 1.5.10.3 | www.virtualdub-fr.org || (build 2550/release)
Writing library : VirtualDubMod build 2550/release
Video
ID : 0
Format : MPEG-4 Visual
Format profile : Advanced Simple@L5
Format settings, BVOP : 1
Format settings, QPel : No
Format settings, GMC : No warppoints
Format settings, Matrix : Custom
Codec ID : XVID
Codec ID/Hint : XviD
Duration : 2h 24mn
Bit rate : 1 243 Kbps
Width : 720 pixels
Height : 304 pixels
Display aspect ratio : 2.35:1
Frame rate : 23.976 fps
Color space : YUV
Chroma subsampling : 4:2:0
Bit depth : 8 bits
Scan type : Progressive
Compression mode : Lossy
Bits/(Pixel*Frame) : 0.237
Stream size : 1.25 GiB (86%)
Writing library : XviD 1.2.1 (UTC 2008-12-04)
Audio
ID : 1
Format : AC-3
Format/Info : Audio Coding 3
Mode extension : CM (complete main)
Format settings, Endianness : Big
Codec ID : 2000
Duration : 2h 24mn
Bit rate mode : Constant
Bit rate : 192 Kbps
Channel(s) : 2 channels
Channel positions : Front: L R
Sampling rate : 48.0 KHz
Compression mode : Lossy
Stream size : 198 MiB (13%)
Alignment : Split accross interleaves
Interleave, duration : 42 ms (1.00 video frame)
Interleave, preload duratio : 500 ms

Скриншот c названием фильма

Скриншоты

To download the content you need:
1. Download and install torrent client [for Windows] or for mobile system
2. Click on [Download]
Attention.
If the test YOU are NOT a ROBOT - does not work, then You are using an outdated browser.
Install the current browser and click on [Download]

Do not work with Yandex browser. Uploading files to them is erroneous.
Security: torrent client is allowed by Kaspersky.

[en.asmlocator.ru].t4828.torrent 
Torrent: Registered [ 2015-12-02 05:40 ] · 6CD2BE63542DD4ED0261BE5B6F1D56ACE262CACF

Download .torrent

Download

15 KB

Status: checked
Completed: 0 times
Size: 1.45 GB
terms.php
[Profile] [PM]
Display posts:    
Reply to topic

Current time is: 31-Mar 15:13

All times are UTC ± 0



You cannot post new topics in this forum
You cannot reply to topics in this forum
You cannot edit your posts in this forum
You cannot delete your posts in this forum
You cannot vote in polls in this forum
You cannot attach files in this forum
You can download files in this forum
Верим фактам, а не вранью Путина! Факт, что Правительство ведёт Россию к истреблению.
Так как численность населения падает, даже не смотря на приток эмигрантов!
Русская нация вымирает и вырождается, смешиваясь с эмигрантами!
Факт, что военных и граждан предприятий заставляют голосовать за партию Единая Россия и Путина
ПОД СТРАХОМ УВОЛЬНЕНИЯ!
Нам не нужно Правительство, блокирующее личную жизнь, интернет, нарушающее сохранность данных.
Все эти действия финансируются за счёт народа!