Двойная Угроза / Опасная Подмена / Double Threat (Дэвид Э. Прайор / David A. Prior) [1993, США, триллер, детектив, DVDRip] AVO (Алексей Михалев) + DVO (REN-TV) + Original Eng

Reply to topic
DL-List and Torrent activity
Size:  1.35 GB   |    Registered:  4 years 4 months   |    Completed:  0 times

Seeder not seen: 2 years

 
   
 
 
Author Message

star21 ®

Gender: Female

Longevity: 4 years 4 months

Posts: 551945

Location: Екатеринбург

Post 02-Dec-2015 05:42

[Quote]

Опасная подмена / Double Threat
Страна: США
Жанр: триллер, детектив
Год выпуска: 1993
Продолжительность: 01:31:53
Перевод: Авторский (одноголосый закадровый) Алексей Михалев
Перевод 2: Двухголосый закадровый (REN-TV)
В пропущенном при записи эпизоде 00:38:54 - 00:39:37 вставлен Михалёв.
Cубтитры: нет
Оригинальная аудиодорожка: английский
Режиссер: Дэвид Э. Прайор / David A. Prior
В ролях: Сэлли Керклэнд /Sally Kirkland/, Эндрю Стивенс /Andrew Stevens/, Шерри Роуз /Sherrie Rose/, Чик Веннера /Chick Vennera/, Гэри Суонсон /Gary Swanson/, Ричард Линч /Richard Lynch/, Энтони Франчоза /Anthony Franciosa/
Описание: Аннотация от alenavova
Сначала Эрик Клайн был любовником голливудской кинозвезды Моники Мартел. Потом стареющая Моника продвинула своего партнера по постели повыше - и он стал получать приглашения на роли в остросюжетных фильмах, которые очень напоминали некоторые реальные ситуации, возникавшие в жизни Эрика. Это сходство усилилось, когда обаяшка Клайн оказался в объятиях молоденькой старлеточки Лизы Шейн, потому что новая любовная связь внесла еще немало криминального в и без того неспокойное существование молодого, но шустрого человека. Эрик Клайн не учел только одного: чтобы спать с двумя женщинами разного возраста, мало быть шустрым - надо постараться не знакомить их друг с другом. А то ведь соперницы и сговориться могут...
Доп. информация: Благодарность:
Анна57 - за дорожку с переводом AVO с VHS
xelon2006 - за синхрон дорожки.

JUSTKANT за синхрон дорожки REN-TV
Sp1end1d за дорожку REN-TV

Ну и мне как организатору
Релиз
Сэмпл: https://yadi.sk/i/Gm82VXFEj7moY
Качество видео: DVDRip
Формат видео: AVI
Видео: 640x480 (1.33:1), 25 fps, XviD Final 1.0.3 (build 37) ~1501 kbps avg, 0.20 bit/pixel
Аудио: 48 kHz, AC3 Dolby Digital, 2/0 (L,R) ch, ~192 kbps
Аудио 2: 48 kHz, AC3 Dolby Digital, 2/0 (L,R) ch, ~192 kbps DVO
Аудио 3: 48 kHz, AC3 Dolby Digital, 2/0 (L,R) ch, ~192 kbps Eng

MediaInfo

Опасная подмена - Double Threat [by Edich2].avi
Format : AVI
Format/Info : Audio Video Interleave
File size : 1.35 GiB
Duration : 1h 31mn
Overall bit rate : 2 097 Kbps
Movie name : Опасная подмена - Double Threat [by Edich2]
Director : by Edich2
Writing application : VirtualDubMod 1.5.10.2 (build 2540/release)
Writing library : VirtualDubMod build 2540/release
Comment : RuTracker.org
Video
ID : 0
Format : MPEG-4 Visual
Format profile : Simple@L3
Format settings, BVOP : 2
Format settings, QPel : No
Format settings, GMC : No warppoints
Format settings, Matrix : Default (H.263)
Codec ID : XVID
Codec ID/Hint : XviD
Duration : 1h 31mn
Bit rate : 1 502 Kbps
Width : 640 pixels
Height : 480 pixels
Display aspect ratio : 4:3
Frame rate : 25.000 fps
Color space : YUV
Chroma subsampling : 4:2:0
Bit depth : 8 bits
Scan type : Progressive
Compression mode : Lossy
Bits/(Pixel*Frame) : 0.196
Stream size : 987 MiB (72%)
Writing library : XviD 1.0.3 (UTC 2004-12-20)
Audio #1
ID : 1
Format : AC-3
Format/Info : Audio Coding 3
Mode extension : CM (complete main)
Format settings, Endianness : Big
Codec ID : 2000
Duration : 1h 31mn
Bit rate mode : Constant
Bit rate : 192 Kbps
Channel(s) : 2 channels
Channel positions : Front: L R
Sampling rate : 48.0 KHz
Bit depth : 16 bits
Compression mode : Lossy
Stream size : 126 MiB (9%)
Alignment : Split accross interleaves
Interleave, duration : 40 ms (1.00 video frame)
Interleave, preload duration : 500 ms
Audio #2
ID : 2
Format : AC-3
Format/Info : Audio Coding 3
Mode extension : CM (complete main)
Format settings, Endianness : Big
Codec ID : 2000
Duration : 1h 31mn
Bit rate mode : Constant
Bit rate : 192 Kbps
Channel(s) : 2 channels
Channel positions : Front: L R
Sampling rate : 48.0 KHz
Bit depth : 16 bits
Compression mode : Lossy
Stream size : 126 MiB (9%)
Alignment : Split accross interleaves
Interleave, duration : 40 ms (1.00 video frame)
Interleave, preload duration : 500 ms
Audio #3
ID : 3
Format : AC-3
Format/Info : Audio Coding 3
Mode extension : CM (complete main)
Format settings, Endianness : Big
Codec ID : 2000
Duration : 1h 31mn
Bit rate mode : Constant
Bit rate : 192 Kbps
Channel(s) : 2 channels
Channel positions : Front: L R
Sampling rate : 48.0 KHz
Bit depth : 16 bits
Compression mode : Lossy
Stream size : 126 MiB (9%)
Alignment : Split accross interleaves
Interleave, duration : 40 ms (1.00 video frame)
Interleave, preload duration : 500 ms
16.09.15. ТОРРЕНТ ПЕРЕЗАЛИТ. ДОБАВЛЕН ПЕРЕВОД REN-TV.

To download the content you need:
1. Download and install torrent client [for Windows] or for mobile system
2. Click on [Download]
Attention.
If the test YOU are NOT a ROBOT - does not work, then You are using an outdated browser.
Install the current browser and click on [Download]

Do not work with Yandex browser. Uploading files to them is erroneous.
Security: torrent client is allowed by Kaspersky.

[en.asmlocator.ru].t4827.torrent 
Torrent: Registered [ 2015-12-02 05:40 ] · D5A8FAEBB2B738AD850B5087A6D15D8CE38402AC

Download .torrent

Download

14 KB

Status: checked
Completed: 0 times
Size: 1.35 GB
terms.php
[Profile] [PM]
Display posts:    
Reply to topic

Current time is: 03-Apr 03:48

All times are UTC ± 0



You cannot post new topics in this forum
You cannot reply to topics in this forum
You cannot edit your posts in this forum
You cannot delete your posts in this forum
You cannot vote in polls in this forum
You cannot attach files in this forum
You can download files in this forum
Верим фактам, а не вранью Путина! Факт, что Правительство ведёт Россию к истреблению.
Так как численность населения падает, даже не смотря на приток эмигрантов!
Русская нация вымирает и вырождается, смешиваясь с эмигрантами!
Факт, что военных и граждан предприятий заставляют голосовать за партию Единая Россия и Путина
ПОД СТРАХОМ УВОЛЬНЕНИЯ!
Нам не нужно Правительство, блокирующее личную жизнь, интернет, нарушающее сохранность данных.
Все эти действия финансируются за счёт народа!