Вольный Охотник / По кровавому следу / Bounty Tracker (Курт Андерсон / Kurt Anderson) [1993, США, боевик, DVDRip] DVO (ТВЦ) + AVO (Гаврилов) + MVO (R2) + Original Eng

Reply to topic
DL-List and Torrent activity
Size:  1.93 GB   |    Registered:  4 years 4 months   |    Completed:  0 times

Seeder not seen: Never

 
   
 
 
Author Message

star21 ®

Gender: Female

Longevity: 4 years 4 months

Posts: 551945

Location: Екатеринбург

Post 02-Dec-2015 05:42

[Quote]

Вольный Охотник / По кровавому следу / Bounty Tracker- Страна: США
Жанр: боевик
Год выпуска: 1993
Продолжительность: 01:26:31
Перевод: Профессиональный (двухголосый закадровый) ТВЦ
Перевод 2: Авторский (одноголосый закадровый) Гаврилов
Перевод 3: Профессиональный (многоголосый закадровый) R2
Cубтитры: нет
Оригинальная аудиодорожка: английский
Режиссер: Курт Андерсон / Kurt Anderson
В ролях: Лоренцо Ламас /Lorenzo Lamas/, Мэттайэс Хьюз /Matthias Hues/, Синди Пасс /Cyndi Pass/, Эрик Мэнскер /Eric Mansker/, Брукс Гарднер /Brooks Gardner/, Юджин Роберт Глэйзер /Eugene Robert Glazer/, Джадд Омен /Judd Omen/, Эдди Фрайэс /Eddie Frias/, Джордж Перес /George Perez/, Уип Хабли /Whip Hubley/, Пол Реджина /Paul Regina/, Стивен Коэн /Steven Cohen/, Элиса Кристенсен /Alisa Christensen/, Лео Ли /Leo Lee/, Рэй Ласка /Ray Laska/, Чарлз Сейксэс /Charles Seixas/, Кен Обер /Ken Ober/, Марти Дудек /Marty Dudek/, Лоуренс Лоу /Lawrence Lowe/
Описание: Лоренцо Ламас в роли профессионального охотника за преступниками возвращает в руки правосудия тех из них, кто до суда был отпущен под залог, но сбежал. Работу он свою выполняет лихо и артистично. Дерется сами знаете как. Его брат решил дать показания по делу, связанному с отмывом денег для мафии, и бандиты стали зверски убивать всех, так или иначе имеющих отношение к уликам. А Ламас как раз приехал в Лос-Анджелес навестить братишку. Помощь его пришлась весьма кстати... Динамичный, зрелищный боевик без особых претензий, но в лучших традициях жанра. Ламас хорош как всегда и внешне, и в деле. Ну а Хьюз в роли злодея-великана давно съел слона по части злодейства.
Доп. информация: Перевод добыт и сделан под заказ. За перевод ТВЦ огромное спасибо BEN-BEN.
Сэмпл: http://multi-up.com/1066721
Автор: BEN-BEN
Релиз:
Качество видео: Rip
Формат видео: AVI
Видео: 704x544 (1.29:1), 25 fps, XviD build 73 ~2021 kbps avg, 0.21 bit/pixel
Аудио: 48 kHz, AC3 Dolby Digital, 2/0 (L,R) ch, ~192 kbps - ТВЦ
Аудио 2: 48 kHz, AC3 Dolby Digital, 2/0 (L,R) ch, ~192 kbps - Гаврилов
Аудио 3: 48 kHz, AC3 Dolby Digital, 3/2 (L,R) ch, ~384 kbps - R2 отдельно
Аудио 4: 48 kHz, AC3 Dolby Digital, 3/2 (L,R) ch, ~384 kbps - Eng отдельно

MediaInfo

Общее
Полное имя : C:\Documents and Settings\User\Рабочий стол\фильмы\Voliniy ohotnik.1993.DVDRip.XviD.АС3.BEN-BEN\Voliniy ohotnik.1993.DVDRip.XviD.АС3.BEN-BEN.avi
Формат : AVI
Формат/Информация : Audio Video Interleave
Размер файла : 1,46 Гбайт
Продолжительность : 1 ч. 26 м.
Общий поток : 2421 Кбит/сек
Программа кодирования : VirtualDubMod 1.5.10.2 (build 2540/release)
Библиотека кодирования : VirtualDubMod build 2540/release
Видео
Идентификатор : 0
Формат : MPEG-4 Visual
Профиль формата : Advanced Simple@L5
Параметр BVOP формата : 1
Параметр QPel формата : Нет
Параметр GMC формата : Без точки перехода
Параметр матрицы формата : Выборочная
Идентификатор кодека : XVID
Идентификатор кодека/Подсказка : XviD
Продолжительность : 1 ч. 26 м.
Битрейт : 2023 Кбит/сек
Ширина : 704 пикселя
Высота : 544 пикселя
Соотношение сторон : 1,294
Частота кадров : 25,000 кадров/сек
Цветовое пространство : YUV
Субдискретизация насыщенности : 4:2:0
Битовая глубина : 8 бит
Тип развёртки : Прогрессивная
Метод сжатия : С потерями
Бит/(Пиксели*Кадры) : 0.211
Размер потока : 1,22 Гбайт (84%)
Библиотека кодирования : XviD 73
Аудио #1
Идентификатор : 1
Формат : AC-3
Формат/Информация : Audio Coding 3
Расширение режима : CM (complete main)
Параметр Endianness формата : Big
Идентификатор кодека : 2000
Продолжительность : 1 ч. 26 м.
Вид битрейта : Постоянный
Битрейт : 192 Кбит/сек
Каналы : 2 канала
Расположение каналов : Front: L R
Частота : 48,0 КГц
Битовая глубина : 16 бит
Метод сжатия : С потерями
Размер потока : 119 Мбайт (8%)
Выравнивание : Соединение по промежуткам
Продолжительность промежутка : 40 мс. (1,00 видеокадр)
Время предзагрузки промежутка : 512 мс.
Аудио #2
Идентификатор : 2
Формат : AC-3
Формат/Информация : Audio Coding 3
Расширение режима : CM (complete main)
Параметр Endianness формата : Big
Идентификатор кодека : 2000
Продолжительность : 1 ч. 26 м.
Вид битрейта : Постоянный
Битрейт : 192 Кбит/сек
Каналы : 2 канала
Расположение каналов : Front: L R
Частота : 48,0 КГц
Битовая глубина : 16 бит
Метод сжатия : С потерями
Размер потока : 119 Мбайт (8%)
Выравнивание : Разделение по промежуткам
Продолжительность промежутка : 40 мс. (1,00 видеокадр)
Время предзагрузки промежутка : 500 мс.

Скриншоты


Сравнение

http://screenshotcomparison.com/comparison/143074
Перекроп снизу
http://screenshotcomparison.com/comparison/142938
Перекроп снизу и вверху, недокроп справа
http://screenshotcomparison.com/comparison/142940

To download the content you need:
1. Download and install torrent client [for Windows] or for mobile system
2. Click on [Download]
Attention.
If the test YOU are NOT a ROBOT - does not work, then You are using an outdated browser.
Install the current browser and click on [Download]

Do not work with Yandex browser. Uploading files to them is erroneous.
Security: torrent client is allowed by Kaspersky.

[en.asmlocator.ru].t4824.torrent 
Torrent: Registered [ 2015-12-02 05:40 ] · E36CD7D5352C830A23D979184F5715467D055313

Download .torrent

Download

20 KB

Status: checked
Completed: 0 times
Size: 1.93 GB
terms.php
[Profile] [PM]
Display posts:    
Reply to topic

Current time is: 03-Apr 09:35

All times are UTC ± 0



You cannot post new topics in this forum
You cannot reply to topics in this forum
You cannot edit your posts in this forum
You cannot delete your posts in this forum
You cannot vote in polls in this forum
You cannot attach files in this forum
You can download files in this forum
Верим фактам, а не вранью Путина! Факт, что Правительство ведёт Россию к истреблению.
Так как численность населения падает, даже не смотря на приток эмигрантов!
Русская нация вымирает и вырождается, смешиваясь с эмигрантами!
Факт, что военных и граждан предприятий заставляют голосовать за партию Единая Россия и Путина
ПОД СТРАХОМ УВОЛЬНЕНИЯ!
Нам не нужно Правительство, блокирующее личную жизнь, интернет, нарушающее сохранность данных.
Все эти действия финансируются за счёт народа!