Захват в раю / TripFall (Серж Роднунски / Serge Rodnunsky) [2000, США, триллер, DVDRip] MVO (СтарТрек)

Reply to topic
DL-List and Torrent activity
Size:  745 MB   |    Registered:  4 years 3 months   |    Completed:  0 times

Seeder not seen: Never

 
   
 
 
Author Message

star21 ®

Gender: Female

Longevity: 4 years 4 months

Posts: 551945

Location: Екатеринбург

Post 02-Dec-2015 05:42

[Quote]

Захват в раю / TripFall
Страна: США
Жанр: триллер
Год выпуска: 2000
Продолжительность: 01:29:28
Перевод: Профессиональный (многоголосый закадровый) СтарТрек
Cубтитры: нет
Режиссер: Серж Роднунски /Serge Rodnunsky
В ролях: Эрик Робертс, Джон Риттер, Рэйчел Хантер, Тайлер Коул, Малингер Кристина, Энн Мур, Кен Палмер, Майкл Рейнор, Кэти Бойер, Рик Дитс, Уэйн Дювалл
Описание: Устав от дел, удачливый бизнесмен Том Уильямс отправился вместе с женой и двумя детьми на солнечное калифорнийское побережье. Но долгожданный отдых обернулся настоящим кошмаром. Банда мистера Эдди, за которой тянется длинный шлейф убийств, захватывает всю семью в заложники, а чтобы продемонстрировать серьезность своих намерений, убивает на глазах Тома первого попавшегося прохожего.
В обмен на свободу Том должен отдать бандитам все свое состояние — больше миллиона долларов. Однако Том понимает, что Эдди не собирается оставлять в живых лишних свидетелей. Всю жизнь занимавшийся бизнесом и проживавший в уютных и безопасных спальных районах, Том должен набраться мужества, чтобы спасти себя и свою семью…
Сэмпл: http://multi-up.com/1066745
Качество видео: DVDRip -
Формат видео: AVI
Видео: 544x416 (1.31:1), 25 fps, XviD, 1026 kbps, 0.18 bit/pixel
Аудио: 48 kHz, MPEG Layer 3, 2 ch, 128.00 kbps, MVO (СтарТрек)

MediaInfo

General
Complete name : E:\Раздачи\rutracker.org\Zahvat_v_rayu_745_by_max1wq.avi
Format : AVI
Format/Info : Audio Video Interleave
File size : 745 MiB
Duration : 1h 29mn
Overall bit rate : 1 165 Kbps
Writing application : VirtualDubMod 1.5.10.2 (build 2540/release)
Writing library : VirtualDubMod build 2540/release
Video
ID : 0
Format : MPEG-4 Visual
Format profile : Advanced Simple@L5
Format settings, BVOP : 1
Format settings, QPel : No
Format settings, GMC : No warppoints
Format settings, Matrix : Custom
Codec ID : XVID
Codec ID/Hint : XviD
Duration : 1h 29mn
Bit rate : 1 027 Kbps
Width : 544 pixels
Height : 416 pixels
Display aspect ratio : 4:3
Frame rate : 25.000 fps
Color space : YUV
Chroma subsampling : 4:2:0
Bit depth : 8 bits
Scan type : Progressive
Compression mode : Lossy
Bits/(Pixel*Frame) : 0.181
Stream size : 657 MiB (88%)
Writing library : XviD 73
Audio
ID : 1
Format : MPEG Audio
Format version : Version 1
Format profile : Layer 3
Mode : Joint stereo
Mode extension : MS Stereo
Codec ID : 55
Codec ID/Hint : MP3
Duration : 1h 29mn
Bit rate mode : Constant
Bit rate : 128 Kbps
Channel(s) : 2 channels
Sampling rate : 48.0 KHz
Compression mode : Lossy
Stream size : 81.9 MiB (11%)
Alignment : Aligned on interleaves
Interleave, duration : 40 ms (1.00 video frame)
Interleave, preload duration : 504 ms

To download the content you need:
1. Download and install torrent client [for Windows] or for mobile system
2. Click on [Download]
Attention.
If the test YOU are NOT a ROBOT - does not work, then You are using an outdated browser.
Install the current browser and click on [Download]

Do not work with Yandex browser. Uploading files to them is erroneous.
Security: torrent client is allowed by Kaspersky.

[en.asmlocator.ru].t4822.torrent 
Torrent: Registered [ 2015-12-02 05:40 ] · 2D7E741A4EFC3B2D486ED91C0CA9173B7F8E643E

Download .torrent

Download

15 KB

Status: checked
Completed: 0 times
Size: 745 MB
terms.php
[Profile] [PM]
Display posts:    
Reply to topic

Current time is: 31-Mar 19:23

All times are UTC ± 0



You cannot post new topics in this forum
You cannot reply to topics in this forum
You cannot edit your posts in this forum
You cannot delete your posts in this forum
You cannot vote in polls in this forum
You cannot attach files in this forum
You can download files in this forum
Верим фактам, а не вранью Путина! Факт, что Правительство ведёт Россию к истреблению.
Так как численность населения падает, даже не смотря на приток эмигрантов!
Русская нация вымирает и вырождается, смешиваясь с эмигрантами!
Факт, что военных и граждан предприятий заставляют голосовать за партию Единая Россия и Путина
ПОД СТРАХОМ УВОЛЬНЕНИЯ!
Нам не нужно Правительство, блокирующее личную жизнь, интернет, нарушающее сохранность данных.
Все эти действия финансируются за счёт народа!