Мистер Несчастный Случай / 33 Несчастья / Mr. Accident (Яху Сиэриос / Yahoo Serious) [2000, Австралия, комедия, HDTVRip] DVO (REN-TV)

Reply to topic
DL-List and Torrent activity
Size:  1.39 GB   |    Registered:  4 years 3 months   |    Completed:  0 times

Seeder not seen: 5 months 11 days

 
   
 
 
Author Message

star21 ®

Gender: Female

Longevity: 4 years 4 months

Posts: 551945

Location: Екатеринбург

Post 02-Dec-2015 05:42

[Quote]

Мистер Несчастный Случай / 33 Несчастья / Mr. Accident
Год выпуска: 2000
Страна: Австралия
Жанр: комедия
Продолжительность: 01:25:26
Перевод: Профессиональный (двухголосый закадровый) - REN-TV
Cубтитры: нет
Режиссер: Яху Сиэриос / Yahoo Serious
В ролях: Яху Сиэриос (Roger Crumpkin), Хелен Дэллимор (Sunday Valentine), Дэвид Филд (Duxton Chevalier), Грант Пиро (Lyndon), Жанетт Кронин (Constable Rikki), Гарри МакДональд (Kelvin Chevalier), Дэвид Хоуи (Roger's Father), Феликс Уильямсон (Rats), Пиппа Грэндисон (Nightclub Natasha), Либби Горр (Cpl. Brigitte)-Мировая премьера: 24 марта 2000-Описание: 33 несчастья преследуют работника птицефабрики, жизнерадостного горемыку Роджера Крампкина. Однажды он знакомится с удивительной девушкой по имени Сандэй Валентайн. Загадочная красотка, одержимая верой в пришельцев из космоса, только что сбежала от своего дружка Дакстона Шевалье. Случайная встреча оборачивается пламенным чувством. Но безмятежному счастью приходит конец: коварный Шевалье проникает на фабрику, ужасные планы интригана ставят под угрозу жизни миллионов невинных людей. Теперь Роджеру Крампкину придется самыми невероятными способами спасать человечество, а заодно и собственную любовь…-Исходник видео: от .-Благодарности:
- собственная запись перевода с телеканала REN-TV в начале 2000-х годов через видеомагнитофон и оцифровка с видеокассеты.
- синхронизация перевода.-Данный перевод на трекере появляется впервые.
В переводе есть 3 вставки перевода НТВ+ в эпизодах с речью, которые были пропущены во время записи из за реклам.-На русский язык фильм озвучен телекомпанией REN-TV.
Текст читают Игорь Тарадайкин и Ирина Савина.-Рейтинг

MPAA: PG-13 - Детям до 13 лет просмотр не желателен-Качество видео: HDTVRip
Формат видео: AVI -> //СЭМПЛ//
Видео: XviD, 720x400 (16:9), 25.000 fps, 2128 kbps avg
Аудио:
1 - 48 khz, AC3 Dolby Digital, 2/0 (L,R) ch, ~192 kbps [REN-TV / ТВ3] VHSRip

MediaInfo

General
Complete name : E:\Торрент Файлы\Будущие Релизы на Трекере\1.35 - 1.46 и более гб\Мистер Несчастный Случай (REN-TV).avi
Format : AVI
Format/Info : Audio Video Interleave
File size : 1.39 GiB
Duration : 1h 25mn
Overall bit rate : 2 329 Kbps
Writing application : VirtualDubMod 1.5.10.3 | www.virtualdub-fr.org || (build 2550/release)
Writing library : VirtualDubMod build 2550/release
Video
ID : 0
Format : MPEG-4 Visual
Format profile : Advanced Simple@L5
Format settings, BVOP : 1
Format settings, QPel : No
Format settings, GMC : No warppoints
Format settings, Matrix : Custom
Codec ID : XVID
Codec ID/Hint : XviD
Duration : 1h 25mn
Bit rate : 2 128 Kbps
Width : 720 pixels
Height : 400 pixels
Display aspect ratio : 16:9
Frame rate : 25.000 fps
Color space : YUV
Chroma subsampling : 4:2:0
Bit depth : 8 bits
Scan type : Progressive
Compression mode : Lossy
Bits/(Pixel*Frame) : 0.296
Stream size : 1.27 GiB (91%)
Writing library : XviD 1.2.1 (UTC 2008-12-04)
Audio
ID : 1
Format : AC-3
Format/Info : Audio Coding 3
Mode extension : CM (complete main)
Format settings, Endianness : Big
Codec ID : 2000
Duration : 1h 25mn
Bit rate mode : Constant
Bit rate : 192 Kbps
Channel(s) : 2 channels
Channel positions : Front: L R
Sampling rate : 48.0 KHz
Compression mode : Lossy
Stream size : 117 MiB (8%)
Alignment : Split accross interleaves
Interleave, duration : 40 ms (1.00 video frame)
Interleave, preload duratio : 500 ms

Скриншот c названием фильма

Скриншоты

To download the content you need:
1. Download and install torrent client [for Windows] or for mobile system
2. Click on [Download]
Attention.
If the test YOU are NOT a ROBOT - does not work, then You are using an outdated browser.
Install the current browser and click on [Download]

Do not work with Yandex browser. Uploading files to them is erroneous.
Security: torrent client is allowed by Kaspersky.

[en.asmlocator.ru].t4820.torrent 
Torrent: Registered [ 2015-12-02 05:40 ] · 7FA9AFCAF2AFCEAFE3365C20E505A6628DE8604D

Download .torrent

Download

14 KB

Status: checked
Completed: 0 times
Size: 1.39 GB
terms.php
[Profile] [PM]
Display posts:    
Reply to topic

Current time is: 31-Mar 20:23

All times are UTC ± 0



You cannot post new topics in this forum
You cannot reply to topics in this forum
You cannot edit your posts in this forum
You cannot delete your posts in this forum
You cannot vote in polls in this forum
You cannot attach files in this forum
You can download files in this forum
Верим фактам, а не вранью Путина! Факт, что Правительство ведёт Россию к истреблению.
Так как численность населения падает, даже не смотря на приток эмигрантов!
Русская нация вымирает и вырождается, смешиваясь с эмигрантами!
Факт, что военных и граждан предприятий заставляют голосовать за партию Единая Россия и Путина
ПОД СТРАХОМ УВОЛЬНЕНИЯ!
Нам не нужно Правительство, блокирующее личную жизнь, интернет, нарушающее сохранность данных.
Все эти действия финансируются за счёт народа!