Готовый убивать / Желание убить / Fit to Kill (Энди Сидарис / Andy Sidaris) [1993, США, боевик, эротика, DVDRip] DVO (НТВ+) + VO + Original Eng

Reply to topic
DL-List and Torrent activity
Size:  1.58 GB   |    Registered:  4 years 4 months   |    Completed:  0 times

Seeder not seen: 2 years 2 months

 
   
 
 
Author Message

star21 ®

Gender: Female

Longevity: 4 years 5 months

Posts: 551945

Location: Екатеринбург

Post 02-Dec-2015 05:42

[Quote]

Готовый убивать / Желание убить / Fit to Kill
Страна: США
Жанр: боевик, эротика
Год выпуска: 1993
Продолжительность: 01:33:57
Перевод 1: Профессиональный (двухголосый закадровый) НТВ+ по заказу НТВ
Перевод 2: Одноголосый закадровый
Cубтитры: нет
Оригинальная аудиодорожка: английский отдельным файлом
Режиссер: Энди Сидарис / Andy Sidaris
В ролях: Дона Спейр, Роберта Васкес, Брюс Пенхалл, Джеффри Мур, Тони Пек, Синтия Бримхолл, Джули Стрэйн, Родриго Обрегон, Аки Алеонг, Ава Каделл...
Описание: Группе агентов ФБР поручено охранять богатого китайского бизнесмена Чанга на вечеринке в Мауи, где он должен встретиться с российским дипломатом Михаилом Петровым.
Именно ему Чанг должен вручить знаменитый «алмаз Алекса», который в свое время был найден в Сибири, но попал к немецким оккупантам, а от них — к Чангу…
Доп. информация: За перевод НТВ+ спасибо miha2154. За оцифровку VHS с одноголосым переводом спасибо alenavova.
Сэмпл: http://multi-up.com/1066846
Качество видео: DVDRip
Формат видео: AVI
Видео: 640x480 (1.33:1), 23.976 fps, XviD build 47 ~1817 kbps avg, 0.25 bit/pixel
Аудио 1: 48 kHz, AC3 Dolby Digital, 2/0 (L,R) ch, ~192 kbps НТВ+
Аудио 2: 48 kHz, AC3 Dolby Digital, 2/0 (L,R) ch, ~192 kbps VO
Аудио 3: 48 kHz, AC3 Dolby Digital, 2/0 (L,R) ch, ~192 kbps Eng отдельным файлом

Сравнение

http://screenshotcomparison.com/comparison/143168
Видео одно и тоже

MediaInfo

General
Complete name : C:\Fit to Kill\Fit to Kill.avi
Format : AVI
Format/Info : Audio Video Interleave
File size : 1.45 GiB
Duration : 1h 33mn
Overall bit rate : 2 216 Kbps
Movie name : Fit to Kill (1993)
Director :
Writing application : VirtualDubMod 1.5.10.3 (build 2550/release)
Writing library : VirtualDubMod build 2550/release
Video
ID : 0
Format : MPEG-4 Visual
Format profile : Advanced Simple@L5
Format settings, BVOP : 2
Format settings, QPel : Yes
Format settings, GMC : No warppoints
Format settings, Matrix : Custom
Codec ID : XVID
Codec ID/Hint : XviD
Duration : 1h 33mn
Bit rate : 1 818 Kbps
Width : 640 pixels
Height : 480 pixels
Display aspect ratio : 4:3
Frame rate : 23.976 fps
Color space : YUV
Chroma subsampling : 4:2:0
Bit depth : 8 bits
Scan type : Progressive
Compression mode : Lossy
Bits/(Pixel*Frame) : 0.247
Stream size : 1.19 GiB (82%)
Writing library : XviD 1.2.0.dev47 (UTC 2006-11-01)
Audio #1
ID : 1
Format : AC-3
Format/Info : Audio Coding 3
Mode extension : CM (complete main)
Format settings, Endianness : Big
Codec ID : 2000
Duration : 1h 33mn
Bit rate mode : Constant
Bit rate : 192 Kbps
Channel(s) : 2 channels
Channel positions : Front: L R
Sampling rate : 48.0 KHz
Compression mode : Lossy
Stream size : 129 MiB (9%)
Alignment : Split accross interleaves
Interleave, duration : 42 ms (1.00 video frame)
Interleave, preload duratio : 500 ms
Audio #2
ID : 2
Format : AC-3
Format/Info : Audio Coding 3
Mode extension : CM (complete main)
Format settings, Endianness : Big
Codec ID : 2000
Duration : 1h 33mn
Bit rate mode : Constant
Bit rate : 192 Kbps
Channel(s) : 2 channels
Channel positions : Front: L R
Sampling rate : 48.0 KHz
Compression mode : Lossy
Stream size : 129 MiB (9%)
Alignment : Split accross interleaves
Interleave, duration : 42 ms (1.00 video frame)
Interleave, preload duratio : 500 ms

Скриншоты

To download the content you need:
1. Download and install torrent client [for Windows] or for mobile system
2. Click on [Download]
Attention.
If the test YOU are NOT a ROBOT - does not work, then You are using an outdated browser.
Install the current browser and click on [Download]

Do not work with Yandex browser. Uploading files to them is erroneous.
Security: torrent client is allowed by Kaspersky.

[en.asmlocator.ru].t4818.torrent 
Torrent: Registered [ 2015-12-02 05:40 ] · 955D23AE54113CFE1537E2240DDA19242F21E855

Download .torrent

Download

16 KB

Status: checked
Completed: 0 times
Size: 1.58 GB
terms.php
[Profile] [PM]
Display posts:    
Reply to topic

Current time is: 08-Apr 01:22

All times are UTC ± 0



You cannot post new topics in this forum
You cannot reply to topics in this forum
You cannot edit your posts in this forum
You cannot delete your posts in this forum
You cannot vote in polls in this forum
You cannot attach files in this forum
You can download files in this forum
Верим фактам, а не вранью Путина! Факт, что Правительство ведёт Россию к истреблению.
Так как численность населения падает, даже не смотря на приток эмигрантов!
Русская нация вымирает и вырождается, смешиваясь с эмигрантами!
Факт, что военных и граждан предприятий заставляют голосовать за партию Единая Россия и Путина
ПОД СТРАХОМ УВОЛЬНЕНИЯ!
Нам не нужно Правительство, блокирующее личную жизнь, интернет, нарушающее сохранность данных.
Все эти действия финансируются за счёт народа!