Крыша Мира / Top of the World (Сидни Дж. Фьюри / Sidney J. Furie) [1997, США, боевик, триллер, DVDRip] DVO (НТВ) + AVO (Гаврилов)

Reply to topic
DL-List and Torrent activity
Size:  1.45 GB   |    Registered:  4 years 3 months   |    Completed:  1 time

Seeder not seen: 5 months 11 days

 
   
 
 
Author Message

star21 ®

Gender: Female

Longevity: 4 years 4 months

Posts: 551945

Location: Екатеринбург

Post 02-Dec-2015 05:42

[Quote]

Крыша Мира / Top of the World-Жизнь - это игра. Ставки нужно делать вовремя.
Мало выиграть деньги. Нужно суметь их унести.
- Год выпуска: 1997
Страна: США
Жанр: боевик, триллер
Продолжительность: 01:34:32
Перевод: Профессиональный (двухголосый закадровый) - НТВ
Перевод 2: Авторский (одноголосый закадровый) - Андрей Гаврилов
Cубтитры: нет
Режиссер: Сидни Дж. Фьюри / Sidney J. Furie
В ролях: Питер Уэллер (Ray Mercer), Деннис Хоппер (Charles Atlas), Тиа Каррере (Rebecca Mercer), Дэвид Алан Грир (Detective Augustus), Джо Пантольяно (Vince Castor), Кэри-Хироюки Тагава (Captain Hefter), Питер Койот (Doc «The Butcher»), Джули МакКалло (Ginger), Мартин Коув (Carl), Кевин Бернхардт (Dean)-Мировая премьера: 10 сентября 1997-Описание: Освобожденный из тюрьмы бывший полицейский Рэй Мерсер приезжает в Лас-Вегас, чтобы быстро развестись со своей женой Ребеккой. Не удержавшись, нарушая закон, он заходит в казино, где выигрывает 450 тысяч долларов. Пока он решает, как не засветившись получить выигрыш, банда налетчиков совершает ограбление этого самого казино. И все сходится к тому, что именно Рэй должен за все ответить.-Исходник видео: из СГ.-Благодарности:
- собственная запись перевода с телеканала НТВ в конце 90-х годов через видеомагнитофон и оцифровка с видеокассеты.
- собственная оцифровка Гаврилова со своей лицензионной видеокассеты от видео-компании West Video.
- синхронизация переводов.-Перевод НТВ на трекере появляется впервые.
Здесь перевод Гаврилова звучит в более лучшем качестве звука, в отличии от такого же перевода, .-На русский язык фильм озвучен телекомпанией НТВ.
Текст читали Александр Клюквин и Наталья Казначеева.-Рейтинг
kinopoisk.ru: 6.088 (183)
imdb.com: 4.30 (574)
MPAA: R - Лицам до 17 лет обязательно присутствие взрослого.-Качество видео: DVDRip
Формат видео: AVI -> //SAMPLE//
Видео: XviD, 704x528 (4:3), 25.000 fps, 1792 kbps avg
Аудио:
1 - 48 khz, AC3 Dolby Digital, 2/0 (L,R) ch, ~192 kbps [НТВ] VHSRip
2 - 48 khz, AC3 Dolby Digital, 2/0 (L,R) ch, ~192 kbps [Гаврилов] VHSRip-Обновление релиза от 17.09.2015. Причины:
Заменён видеоряд;
Перевод НТВ заменён на такой же видео-кассетный, но более полный перевод, без вставок Гаврилова.

Просьба перескачать торрент!

MediaInfo

General
Complete name : E:\Торрент Файлы\Будущие Релизы на Трекере\1.35 - 1.46 и более гб\Крыша Мира (НТВ + Гаврилов).avi
Format : AVI
Format/Info : Audio Video Interleave
File size : 1.45 GiB
Duration : 1h 34mn
Overall bit rate : 2 190 Kbps
Writing application : VirtualDubMod 1.5.10.3 | www.virtualdub-fr.org || (build 2550/release)
Writing library : VirtualDubMod build 2550/release
Video
ID : 0
Format : MPEG-4 Visual
Format profile : Advanced Simple@L5
Format settings, BVOP : 1
Format settings, QPel : No
Format settings, GMC : No warppoints
Format settings, Matrix : Custom
Codec ID : XVID
Codec ID/Hint : XviD
Duration : 1h 34mn
Bit rate : 1 792 Kbps
Width : 704 pixels
Height : 528 pixels
Display aspect ratio : 4:3
Frame rate : 25.000 fps
Color space : YUV
Chroma subsampling : 4:2:0
Bit depth : 8 bits
Scan type : Progressive
Compression mode : Lossy
Bits/(Pixel*Frame) : 0.193
Stream size : 1.18 GiB (82%)
Writing library : XviD 1.2.1 (UTC 2008-12-04)
Audio #1
ID : 1
Format : AC-3
Format/Info : Audio Coding 3
Mode extension : CM (complete main)
Format settings, Endianness : Big
Codec ID : 2000
Duration : 1h 34mn
Bit rate mode : Constant
Bit rate : 192 Kbps
Channel(s) : 2 channels
Channel positions : Front: L R
Sampling rate : 48.0 KHz
Compression mode : Lossy
Stream size : 130 MiB (9%)
Alignment : Split accross interleaves
Interleave, duration : 40 ms (1.00 video frame)
Interleave, preload duratio : 500 ms
Audio #2
ID : 2
Format : AC-3
Format/Info : Audio Coding 3
Mode extension : CM (complete main)
Format settings, Endianness : Big
Codec ID : 2000
Duration : 1h 34mn
Bit rate mode : Constant
Bit rate : 192 Kbps
Channel(s) : 2 channels
Channel positions : Front: L R
Sampling rate : 48.0 KHz
Compression mode : Lossy
Stream size : 130 MiB (9%)
Alignment : Split accross interleaves
Interleave, duration : 40 ms (1.00 video frame)
Interleave, preload duratio : 500 ms

Скриншот c названием фильма

Скриншоты

To download the content you need:
1. Download and install torrent client [for Windows] or for mobile system
2. Click on [Download]
Attention.
If the test YOU are NOT a ROBOT - does not work, then You are using an outdated browser.
Install the current browser and click on [Download]

Do not work with Yandex browser. Uploading files to them is erroneous.
Security: torrent client is allowed by Kaspersky.

[en.asmlocator.ru].t4817.torrent 
Torrent: Registered [ 2015-12-02 05:40 ] · 6496A0C068CA8D3260C24CF320477F51BBBD9EBE

Download .torrent

Download

15 KB

Status: checked
Completed: 1 times
Size: 1.45 GB
terms.php
[Profile] [PM]
Display posts:    
Reply to topic

Current time is: 31-Mar 16:03

All times are UTC ± 0



You cannot post new topics in this forum
You cannot reply to topics in this forum
You cannot edit your posts in this forum
You cannot delete your posts in this forum
You cannot vote in polls in this forum
You cannot attach files in this forum
You can download files in this forum
Верим фактам, а не вранью Путина! Факт, что Правительство ведёт Россию к истреблению.
Так как численность населения падает, даже не смотря на приток эмигрантов!
Русская нация вымирает и вырождается, смешиваясь с эмигрантами!
Факт, что военных и граждан предприятий заставляют голосовать за партию Единая Россия и Путина
ПОД СТРАХОМ УВОЛЬНЕНИЯ!
Нам не нужно Правительство, блокирующее личную жизнь, интернет, нарушающее сохранность данных.
Все эти действия финансируются за счёт народа!