Время истины / Z\'man Emet (Ури Барбаш / Uri Barbash) [1991, Израиль, военная драма, TVRip] Sub Rus + Original Heb

Reply to topic
DL-List and Torrent activity
Size:  1.12 GB   |    Registered:  4 years 3 months   |    Completed:  0 times

Seeder not seen: Never

 
   
 
 
Author Message

star21 ®

Gender: Female

Longevity: 4 years 4 months

Posts: 551945

Location: Екатеринбург

Post 02-Dec-2015 05:42

[Quote]

Время истины / Z'man Emet
Страна: Израиль
Жанр: военная драма
Год выпуска: 1991
Продолжительность: 01:38:19
Перевод: Субтитры
Cубтитры: русские
Оригинальная аудиодорожка: иврит
Режиссер: Ури Барбаш / Uri Barbash
В ролях: Асси Даян, Нета Моран, Ривка Нойман, Йосси Ашдод, , Шломо Таршиш, Ханна Марон, Рами Данон, Левана Финкельштейн, Арнон Цадок
Описание: После войны Судного дня полковник Эли Анегби (Аси Даян) оказывается под следствием за свои действия на фронте. Спасти его могут показания молодого офицера, но тот, на беду, лежит в коме.
Доп. информация: Огромное спасибо abraka за предоставленную запись.
Сэмпл: http://multi-up.com/1066955
Качество видео: TVRip
Формат видео: AVI
Видео: DivX 5 720x576 25fps 1499kbps [Video 0]
Аудио: MP3 48000Hz stereo 128kbps [Audio 1]
Формат субтитров: hardsub (неотключаемые)

MediaInfo

General
Complete name : D:\Downloads\ZMAN EMET.avi
Format : AVI
Format/Info : Audio Video Interleave
File size : 1.12 GiB
Duration : 1h 38mn
Overall bit rate : 1 638 Kbps
Video
ID : 0
Format : MPEG-4 Visual
Format settings, BVOP : 1
Format settings, QPel : No
Format settings, GMC : No warppoints
Format settings, Matrix : Default (H.263)
Codec ID : DX50
Codec ID/Hint : DivX 5
Duration : 1h 38mn
Bit rate : 1 500 Kbps
Width : 720 pixels
Height : 576 pixels
Display aspect ratio : 5:4
Frame rate : 25.000 fps
Standard : PAL
Color space : YUV
Chroma subsampling : 4:2:0
Bit depth : 8 bits
Scan type : Progressive
Compression mode : Lossy
Bits/(Pixel*Frame) : 0.145
Stream size : 1.03 GiB (92%)
Writing library : DivX 6.8.5 (UTC 2009-08-20)
Audio
ID : 1
Format : MPEG Audio
Format version : Version 1
Format profile : Layer 3
Mode : Joint stereo
Mode extension : MS Stereo
Codec ID : 55
Codec ID/Hint : MP3
Duration : 1h 38mn
Bit rate mode : Constant
Bit rate : 128 Kbps
Channel(s) : 2 channels
Sampling rate : 48.0 KHz
Compression mode : Lossy
Stream size : 90.0 MiB (8%)
Alignment : Split accross interleaves
Interleave, duration : 40 ms (1.00 video frame)
Interleave, preload duration : 500 ms

Скриншоты




To download the content you need:
1. Download and install torrent client [for Windows] or for mobile system
2. Click on [Download]
Attention.
If the test YOU are NOT a ROBOT - does not work, then You are using an outdated browser.
Install the current browser and click on [Download]

Do not work with Yandex browser. Uploading files to them is erroneous.
Security: torrent client is allowed by Kaspersky.

[en.asmlocator.ru].t4814.torrent 
Torrent: Registered [ 2015-12-02 05:40 ] · EDEDDF4DBCBD461859FFAB53EAB2B9DE4BAD87C1

Download .torrent

Download

12 KB

Status: checked
Completed: 0 times
Size: 1.12 GB
terms.php
[Profile] [PM]
Display posts:    
Reply to topic

Current time is: 28-Mar 23:14

All times are UTC ± 0



You cannot post new topics in this forum
You cannot reply to topics in this forum
You cannot edit your posts in this forum
You cannot delete your posts in this forum
You cannot vote in polls in this forum
You cannot attach files in this forum
You can download files in this forum
Верим фактам, а не вранью Путина! Факт, что Правительство ведёт Россию к истреблению.
Так как численность населения падает, даже не смотря на приток эмигрантов!
Русская нация вымирает и вырождается, смешиваясь с эмигрантами!
Факт, что военных и граждан предприятий заставляют голосовать за партию Единая Россия и Путина
ПОД СТРАХОМ УВОЛЬНЕНИЯ!
Нам не нужно Правительство, блокирующее личную жизнь, интернет, нарушающее сохранность данных.
Все эти действия финансируются за счёт народа!