На волне смерти / Радиостанция 98 / Радиостанция смерти / Power 98 (Джейм Хеллман / Jaime Hellman) [1996, США, Триллер, DVDRip] AVO (Сергей Визгунов) + Original Eng

Reply to topic
DL-List and Torrent activity
Size:  1.48 GB   |    Registered:  4 years 3 months   |    Completed:  1 time

Seeder not seen: 5 months 9 days

 
   
 
 
Author Message

star21 ®

Gender: Female

Longevity: 4 years 4 months

Posts: 551945

Location: Екатеринбург

Post 02-Dec-2015 05:42

[Quote]

На волне смерти / Радиостанция 98 / Power 98
Страна: США
Жанр: Триллер
Год выпуска: 1996
Продолжительность: 01:25:55
Перевод: Авторский (одноголосый закадровый) Сергей Визгунов
Cубтитры: нет
Оригинальная аудиодорожка: английский
Режиссер: Джейм Хеллман / Jaime Hellman
В ролях: Эрик Робертс, Лиза Торнхилл, Джейсон Гедрик, Джек Беттс, Майкл Мэнтелл, Дженни Гарт, Джим Файф, Стивен Тоболовски, Сэди Стрэттон, Лесли Бега
Описание: Эрик Робертс в роли популярного радиоведущего Карлина, готового на все ради повышения рейтинга. Парень он предельно циничный и удовольствия понимает чисто материальные. Из духовного его интересует только собственное эго. Его ночные передачи пользовались таким успехом, что женщины просто бросались ему на шею. Одна из них дала ему пощечину, когда он ответил, что во второй раз она его вряд ли заинтересует, она подскользнулась и упала с седьмого этажа. Из Феникса он с повышением переходит радиоведущим в Лос-Анджелес, где получает от владельца полную свободу в эфире. Чтобы поднять рейтинг до небес, он призывает слушателей признаваться в преступлениях. Первым признался некто Эдди, описавший убийство, сходное с несчастным случаем, показанным в начале картины. Карлин втягивает в передачу начинающего, наивного Джона, обещая дать ему свое собственное шоу, а Эдди тем временем признается еще в одном убийстве, но зритель-то уже знает, что второе убийство сам Карлин совершил преднамеренно. Когда же полиция начала расследование, Карлин подставил Джона так, чтобы все подозрения пали на него. Итак Джона уже ищет полиция, но сдаваться он не собирается - он хочет доказать свою невиновность... Неплохой, хоть и предсказуемый триллер смотрится, благодаря одинаково обаятельныму Робертсу, независимо от того, играет он злодея или героя. (Иванов М.)
Доп. информация: Дорожка с С. Визгуновым синхронизирована и наложена ale_x2008 при помощи Sony Vegas и VirtualDubMod.
За оцифрованную с VHS дорожку благодарим - Fikaloid

Релиз
Сэмпл: https://yadi.sk/i/otSWAJMHjBVKw
Качество видео: DVDRip
Формат видео: AVI
Видео: DivX Codec 5.x or 6.x, 688x512 (1.34:1), 25.00 fps, 1818 kbps avg, 0.21 bit/pixel
Аудио: AC3 Dolby Digital, 48000Hz, 2/0 (L,R) ch, 192.00 kbps avg
Аудио 2: AC3 Dolby Digital, 48000Hz, 2/0 (L,R) ch, 192.00 kbps avg Eng

MediaInfo

Радиостанция 98 - Power 98 [by Edich2].avi
Format : AVI
Format/Info : Audio Video Interleave
File size : 1.48 GiB
Duration : 1h 25mn
Overall bit rate : 2 473 Kbps
Movie name : Радиостанция 98 - Power 98 [by ale_x2008]
Director : by Edich2
Writing application : VirtualDubMod 1.5.10.2 (build 2540/release)
Comment : Rutracker.org
Video
ID : 0
Format : MPEG-4 Visual
Format settings, BVOP : 3
Format settings, QPel : No
Format settings, GMC : No warppoints
Format settings, Matrix : Default (H.263)
Codec ID : DX50
Codec ID/Hint : DivX 5
Duration : 1h 25mn
Bit rate : 1 819 Kbps
Width : 688 pixels
Height : 512 pixels
Display aspect ratio : 4:3
Frame rate : 25.000 fps
Color space : YUV
Chroma subsampling : 4:2:0
Bit depth : 8 bits
Scan type : Progressive
Compression mode : Lossy
Bits/(Pixel*Frame) : 0.207
Stream size : 1.09 GiB (74%)
Writing library : DivX 6.8.3-6.8.4 (UTC 2008-06-07)
Audio #1
ID : 1
Format : AC-3
Format/Info : Audio Coding 3
Mode extension : CM (complete main)
Format settings, Endianness : Big
Codec ID : 2000
Duration : 1h 25mn
Bit rate mode : Constant
Bit rate : 192 Kbps
Channel(s) : 2 channels
Channel positions : Front: L R
Sampling rate : 48.0 KHz
Bit depth : 16 bits
Compression mode : Lossy
Stream size : 118 MiB (8%)
Alignment : Split accross interleaves
Interleave, duration : 40 ms (1.00 video frame)
Interleave, preload duration : 500 ms
Audio #2
ID : 2
Format : AC-3
Format/Info : Audio Coding 3
Mode extension : CM (complete main)
Format settings, Endianness : Big
Codec ID : 2000
Duration : 1h 25mn
Bit rate mode : Constant
Bit rate : 448 Kbps
Channel(s) : 6 channels
Channel positions : Front: L C R, Side: L R, LFE
Sampling rate : 48.0 KHz
Bit depth : 16 bits
Compression mode : Lossy
Stream size : 275 MiB (18%)
Alignment : Split accross interleaves
Interleave, duration : 40 ms (1.00 video frame)
Interleave, preload duration : 500 ms

Скриншоты


To download the content you need:
1. Download and install torrent client [for Windows] or for mobile system
2. Click on [Download]
Attention.
If the test YOU are NOT a ROBOT - does not work, then You are using an outdated browser.
Install the current browser and click on [Download]

Do not work with Yandex browser. Uploading files to them is erroneous.
Security: torrent client is allowed by Kaspersky.

[en.asmlocator.ru].t4812.torrent 
Torrent: Registered [ 2015-12-02 05:40 ] · AE02AC2B3B76CCF74CD400F5A651AC9D21C759BF

Download .torrent

Download

15 KB

Status: checked
Completed: 1 times
Size: 1.48 GB
terms.php
[Profile] [PM]
Display posts:    
Reply to topic

Current time is: 29-Mar 00:08

All times are UTC ± 0



You cannot post new topics in this forum
You cannot reply to topics in this forum
You cannot edit your posts in this forum
You cannot delete your posts in this forum
You cannot vote in polls in this forum
You cannot attach files in this forum
You can download files in this forum
Верим фактам, а не вранью Путина! Факт, что Правительство ведёт Россию к истреблению.
Так как численность населения падает, даже не смотря на приток эмигрантов!
Русская нация вымирает и вырождается, смешиваясь с эмигрантами!
Факт, что военных и граждан предприятий заставляют голосовать за партию Единая Россия и Путина
ПОД СТРАХОМ УВОЛЬНЕНИЯ!
Нам не нужно Правительство, блокирующее личную жизнь, интернет, нарушающее сохранность данных.
Все эти действия финансируются за счёт народа!