Освободите Вилли / Free Willy (Саймон Уинсер / Simon Wincer) [1993, США, Франция, драма, приключения, семейный, BDRip] Dub (iTunes Russia) + MVO (ОРТ) + Original Eng + subs (Rus Forced, Rus, Eng, Eng SDH)

Reply to topic
DL-List and Torrent activity
Size:  2.18 GB   |    Registered:  4 years 4 months   |    Completed:  0 times

Seeder not seen: Never

 
   
 
 
Author Message

star21 ®

Gender: Female

Longevity: 4 years 4 months

Posts: 551945

Location: Екатеринбург

Post 02-Dec-2015 05:42

[Quote]

Освободите Вилли / Free Willy- Год выпуска: 1993
Страна: США, Франция
Жанр: драма, приключения, семейный
Продолжительность: 01:51:43
Перевод: Профессиональный (полное дублирование) iTunes Russia
+ Профессиональный (многоголосый, закадровый) ОРТ
+ Оригинальная звуковая дорожка
Субтитры: Русские (форсированные, полные), Английские (полные, SDH) (внешние srt*)-Режиссер: Саймон Уинсер / Simon Wincer
В ролях: Джейсон Джеймс Рихтер, Лори Петти, Джейн Эткинсон, Аугуст Шелленберг, Майкл Мэдсен, Майкл Айронсайд, Ричард Рили, Майкелти Уильямсон, Майкл Бэколл, Даниэль Харрис
О фильме: Косатка, или как еще называют это огромное морское животное, кит-убийца, был разлучен со своей семьей. Люди доставили его в парк развлечений, дали имя Вилли и ожидали, что смогут заработать на его представлениях кучи денег.
В то же время зритель знакомится с мальчишкой Джесси, сбежавшим из дома и добывающим хлеб насущный воровством и попрошайничеством. Джесси находит новых, добрых родителей и ему нужно стереть всякие не очень приличные надписи, которые он нарисовал спреем в парке. И там-то и происходит встреча трудного подростка и кита-убийцы. Они полюбили друг друга с первого взгляда.
А злой владелец парка развлечений по имени Диал уже понял, что зря переводит деньги на непослушного Вилли, и хочет его убить, чтобы получить страховку.-Релиз:
Автор: yaroslaigor
Качество: BDRip (источник: / BD-Remux / 1080p)
Формат: AVI
Видео: 720x304 (2.37:1), 23.976 fps, XviD build 65 ~1958 kbps avg, 0.37 bit/pixel
Аудио #01: 48 kHz, AC3 Dolby Digital, 2/0 (L,R), ~192.00 kbps avg dub
Аудио #02: 48 kHz, AC3 Dolby Digital, 2/0 (L,R), ~192.00 kbps avg mvo
Аудио #03: 48 kHz, AC3 Dolby Digital, 3/2 (L,C,R,l,r) + LFE ch, ~448.00 kbps avg eng
Размер: 2235.28 Mb (1/2 DVD-R)
Скачать: Семпл-

Кадры из фильма


-

Mi

Формат : AVI
Формат/Информация : Audio Video Interleave
Профиль формата : OpenDML
Размер файла : 2,18 Гбайт
Продолжительность : 1 ч. 51 м.
Общий поток : 2797 Кбит/сек
Название фильма : Освободите Вилли / Free Willy (1993) BDRip
Режиссёр : yaroslaigor
Жанр : драма, приключения, семейный
Программа кодирования : VirtualDubMod 1.5.10.2 (build 2542/release)
Правообладатель : HQCLUB
Примечание : 17.09.2015
Видео
Идентификатор : 0
Формат : MPEG-4 Visual
Профиль формата : Advanced Simple@L5
Параметр BVOP формата : 1
Параметр QPel формата : Нет
Параметр GMC формата : Без точки перехода
Параметр матрицы формата : Выборочная
Идентификатор кодека : XVID
Идентификатор кодека/Подсказка : XviD
Продолжительность : 1 ч. 51 м.
Битрейт : 1941 Кбит/сек
Ширина : 720 пикселей
Высота : 304 пикселя
Соотношение сторон : 2,35:1
Частота кадров : 23,976 кадра/сек
Цветовое пространство : YUV
Субдискретизация насыщенности : 4:2:0
Битовая глубина : 8 бит
Тип развёртки : Прогрессивная
Метод сжатия : С потерями
Бит/(Пиксели*Кадры) : 0.370
Размер потока : 1,51 Гбайт (69%)
Библиотека кодирования : XviD 65
Аудио #1
Идентификатор : 1
Формат : AC-3
Формат/Информация : Audio Coding 3
Расширение режима : CM (complete main)
Параметр Endianness формата : Big
Идентификатор кодека : 2000
Продолжительность : 1 ч. 51 м.
Вид битрейта : Постоянный
Битрейт : 192 Кбит/сек
Каналы : 2 канала
Расположение каналов : Front: L R
Частота : 48,0 КГц
Битовая глубина : 16 бит
Метод сжатия : С потерями
Размер потока : 153 Мбайт (7%)
Выравнивание : Разделение по промежуткам
Продолжительность промежутка : 42 мс. (1,00 видеокадр)
Время предзагрузки промежутка : 500 мс.
Аудио #2
Идентификатор : 2
Формат : AC-3
Формат/Информация : Audio Coding 3
Расширение режима : CM (complete main)
Параметр Endianness формата : Big
Идентификатор кодека : 2000
Продолжительность : 1 ч. 51 м.
Вид битрейта : Постоянный
Битрейт : 192 Кбит/сек
Каналы : 2 канала
Расположение каналов : Front: L R
Частота : 48,0 КГц
Битовая глубина : 16 бит
Метод сжатия : С потерями
Размер потока : 153 Мбайт (7%)
Выравнивание : Разделение по промежуткам
Продолжительность промежутка : 42 мс. (1,00 видеокадр)
Время предзагрузки промежутка : 500 мс.
Аудио #3
Идентификатор : 3
Формат : AC-3
Формат/Информация : Audio Coding 3
Расширение режима : CM (complete main)
Параметр Endianness формата : Big
Идентификатор кодека : 2000
Продолжительность : 1 ч. 51 м.
Вид битрейта : Постоянный
Битрейт : 448 Кбит/сек
Каналы : 6 каналов
Расположение каналов : Front: L C R, Side: L R, LFE
Частота : 48,0 КГц
Битовая глубина : 16 бит
Метод сжатия : С потерями
Размер потока : 358 Мбайт (16%)
Выравнивание : Разделение по промежуткам
Продолжительность промежутка : 42 мс. (1,00 видеокадр)
Время предзагрузки промежутка : 500 мс.
-

To download the content you need:
1. Download and install torrent client [for Windows] or for mobile system
2. Click on [Download]
Attention.
If the test YOU are NOT a ROBOT - does not work, then You are using an outdated browser.
Install the current browser and click on [Download]

Do not work with Yandex browser. Uploading files to them is erroneous.
Security: torrent client is allowed by Kaspersky.

[en.asmlocator.ru].t4808.torrent 
Torrent: Registered [ 2015-12-02 05:40 ] · 9F43F0AF70AD42919824390D597F6F5D0E8B8AEB

Download .torrent

Download

12 KB

Status: checked
Completed: 0 times
Size: 2.18 GB
terms.php
[Profile] [PM]
Display posts:    
Reply to topic

Current time is: 03-Apr 03:39

All times are UTC ± 0



You cannot post new topics in this forum
You cannot reply to topics in this forum
You cannot edit your posts in this forum
You cannot delete your posts in this forum
You cannot vote in polls in this forum
You cannot attach files in this forum
You can download files in this forum
Верим фактам, а не вранью Путина! Факт, что Правительство ведёт Россию к истреблению.
Так как численность населения падает, даже не смотря на приток эмигрантов!
Русская нация вымирает и вырождается, смешиваясь с эмигрантами!
Факт, что военных и граждан предприятий заставляют голосовать за партию Единая Россия и Путина
ПОД СТРАХОМ УВОЛЬНЕНИЯ!
Нам не нужно Правительство, блокирующее личную жизнь, интернет, нарушающее сохранность данных.
Все эти действия финансируются за счёт народа!