Синдикат / The Killing Zone (Йен Дэвид Диаз / Ian David Diaz) [1999, Великобритания, Боевик, триллер, экшн, DVDRip] DVO ( Екатеринбург Арт)

Reply to topic
DL-List and Torrent activity
Size:  735 MB   |    Registered:  4 years 4 months   |    Completed:  0 times

Seeder not seen: 1 year 1 month

 
   
 
 
Author Message

star21 ®

Gender: Female

Longevity: 4 years 5 months

Posts: 551945

Location: Екатеринбург

Post 02-Dec-2015 05:42

[Quote]

Синдикат / The Killing Zone
Страна: Великобритания
Жанр: Боевик , триллер , экшн
Год выпуска: 1999
Продолжительность: 1:32:14
Перевод: Профессиональный (двухголосый закадровый) Екатеринбург Арт
Cубтитры: нет
Режиссер: Йен Дэвид Диаз / Ian David Diaz
В ролях: Джулиан Бут(Julian Boote), Пол Вэйтс(Paul Vates), Марк Боуден(Mark Bowden), Пэдрэйг Кейси(Padraig Casey), Джон Бэрдон(John Bardon), Хелен Расмуссен(Helen Rasmussen), Эсме Элиот(Esme Eliot), Виктория Ньюлин(Victoria Newlyn), Пол Керслэйк(Paul Kerslake), Ричард Бин(Richard Bean)
Описание: Есть просто киллеры, а есть Мэттью Палмер. Лучший боец мощной преступной организации под названием «Синдикат», он аккуратен, хорошо воспитани стреляет без промаха. Он любит джаз и носит отполированный до блеска автоматический браунинг. Посвятив всю жизнь ремеслу наемного убийцы, Мэттью лишь недавно узнал, что такое любовь.
Сейчас он хочет выйти из игры и начать новую жизнь. Но для этого нужны средства, и Мэттью задумывает обокрасть своих хозяев. Зная, что подобное желание равносильно самоубийству, он все же считает, что сможет справиться с последствиями своего предательства. Но, выполнив с риском для жизни два своих последних задания и добыв, каки планировал, деньги, Мэттью узнает, что жестоко ошибался.
Доп. информация: Звук синхронизирован из раздачи Ed(die)_Hunter
За наводку на релиз благодарность tuzikman002caa
Сэмпл: https://www.sendspace.com/file/bv6ray
Качество видео: DVDRip
Формат видео: AVI
Видео: XviD MPEG-4 , 640x336 (1.90:1) ,25.000 fps , 912 Kbps
Аудио: AC3 , 48 kHz , 192.00 kbps avg , 2/0 (L,R) ch

MediaInfo

Complete name : C:\Users\Пользователь\Desktop\Синдикат 1999.avi
Format : AVI
Format/Info : Audio Video Interleave
File size : 735 MiB
Duration : 1h 32mn
Overall bit rate : 1 114 Kbps
Writing application : VirtualDubMod 1.5.4.1 (build 2178/release)
Writing library : VirtualDub build 35491/release
Video
ID : 0
Format : MPEG-4 Visual
Format profile : Advanced Simple@L5
Format settings, BVOP : 1
Format settings, QPel : No
Format settings, GMC : No warppoints
Format settings, Matrix : Custom
Codec ID : XVID
Codec ID/Hint : XviD
Duration : 1h 32mn
Bit rate : 912 Kbps
Width : 640 pixels
Height : 336 pixels
Display aspect ratio : 1.905
Frame rate : 25.000 fps
Color space : YUV
Chroma subsampling : 4:2:0
Bit depth : 8 bits
Scan type : Progressive
Compression mode : Lossy
Bits/(Pixel*Frame) : 0.170
Stream size : 602 MiB (82%)
Writing library : XviD 1.1.2 (UTC 2006-11-01)
Audio
ID : 1
Format : AC-3
Format/Info : Audio Coding 3
Mode extension : CM (complete main)
Format settings, Endianness : Big
Codec ID : 2000
Duration : 1h 32mn
Bit rate mode : Constant
Bit rate : 192 Kbps
Channel(s) : 2 channels
Channel positions : Front: L R
Sampling rate : 48.0 KHz
Compression mode : Lossy
Stream size : 127 MiB (17%)
Alignment : Aligned on interleaves
Interleave, duration : 40 ms (1.00 video frame)
Interleave, preload duratio : 512 ms

Скриншоты

To download the content you need:
1. Download and install torrent client [for Windows] or for mobile system
2. Click on [Download]
Attention.
If the test YOU are NOT a ROBOT - does not work, then You are using an outdated browser.
Install the current browser and click on [Download]

Do not work with Yandex browser. Uploading files to them is erroneous.
Security: torrent client is allowed by Kaspersky.

[en.asmlocator.ru].t4807.torrent 
Torrent: Registered [ 2015-12-02 05:40 ] · 99B5C5DD58FC6D97430143C937DCDDCB96224F38

Download .torrent

Download

15 KB

Status: checked
Completed: 0 times
Size: 735 MB
terms.php
[Profile] [PM]
Display posts:    
Reply to topic

Current time is: 08-Apr 02:10

All times are UTC ± 0



You cannot post new topics in this forum
You cannot reply to topics in this forum
You cannot edit your posts in this forum
You cannot delete your posts in this forum
You cannot vote in polls in this forum
You cannot attach files in this forum
You can download files in this forum
Верим фактам, а не вранью Путина! Факт, что Правительство ведёт Россию к истреблению.
Так как численность населения падает, даже не смотря на приток эмигрантов!
Русская нация вымирает и вырождается, смешиваясь с эмигрантами!
Факт, что военных и граждан предприятий заставляют голосовать за партию Единая Россия и Путина
ПОД СТРАХОМ УВОЛЬНЕНИЯ!
Нам не нужно Правительство, блокирующее личную жизнь, интернет, нарушающее сохранность данных.
Все эти действия финансируются за счёт народа!