Смертельная схватка / С риском для жизни / Taking the Heat (Том Манкевич / Tom Mankiewicz) [1993, США, Боевик, триллер, DVDRip] AVO А. Михалев

Reply to topic
DL-List and Torrent activity
Size:  907 MB   |    Registered:  4 years 4 months   |    Completed:  1 time

Seeder not seen: 3 months 16 days

 
   
 
 
Author Message

star21 ®

Gender: Female

Longevity: 4 years 4 months

Posts: 551945

Location: Екатеринбург

Post 02-Dec-2015 05:42

[Quote]

Смертельная схватка / С риском для жизни / Taking the Heat
Страна: США
Жанр: Боевик , триллер
Год выпуска: 1993
Продолжительность: 1:30:21
Перевод: Авторский (одноголосый закадровый) А. Михалев
Cубтитры: нет
Режиссер: Том Манкевич / Tom Mankiewicz
В ролях: Тони Голдуин, Линн Уитфилд, Джордж Сигал, Уилл Пэттон, Питер Бойл, Джо Грифази, Алан Аркин, Грег Джерманн, Рэйчел Йорк, Алекс Картер
Описание: Случайный прохожий оказывается свидетелем ужасной расправы, совершенной бандитами над владельцем магазина спортивных товаров. Разумеется, отвечать за содеянное перед законом бандитам не хочется, и они, обнаружив свидетеля, начинают за ним охоту.
Чернокожая полицейская, как представитель правосудия, пытается доставить свидетеля в суд живым и невредимым, но для нашего героя явка в суд равносильна смерти…
Доп. информация: Рип с ремастерированым звуком найден в сети
Сэмпл: https://www.sendspace.com/file/iu0zfr
Качество видео: DVDRip
Формат видео: AVI
Видео: XviD MPEG-4 , 680x480 (1.42:1) , 29.970 fpss , 1 200 Kbps
Аудио: AC3 , 48 kHz , 192.00 kbps avg , 2/0 (L,R) ch

MediaInfo

Complete name : Смертельная схватка 1993.avi
Format : AVI
Format/Info : Audio Video Interleave
File size : 907 MiB
Duration : 1h 30mn
Overall bit rate : 1 403 Kbps
Writing library : VirtualDub build 35491/release
Video
ID : 0
Format : MPEG-4 Visual
Format profile : Advanced Simple@L4
Format settings, BVOP : No
Format settings, QPel : No
Format settings, GMC : No warppoints
Format settings, Matrix : Default (H.263)
Codec ID : XVID
Codec ID/Hint : XviD
Duration : 1h 30mn
Bit rate : 1 200 Kbps
Width : 680 pixels
Height : 480 pixels
Display aspect ratio : 1.417
Frame rate : 29.970 fps
Color space : YUV
Chroma subsampling : 4:2:0
Bit depth : 8 bits
Scan type : Progressive
Compression mode : Lossy
Bits/(Pixel*Frame) : 0.123
Stream size : 776 MiB (86%)
Writing library : Magic0432
Audio
ID : 1
Format : AC-3
Format/Info : Audio Coding 3
Mode extension : CM (complete main)
Format settings, Endianness : Big
Codec ID : 2000
Duration : 1h 30mn
Bit rate mode : Constant
Bit rate : 192 Kbps
Channel(s) : 2 channels
Channel positions : Front: L R
Sampling rate : 44.1 KHz
Compression mode : Lossy
Stream size : 124 MiB (14%)
Alignment : Aligned on interleaves
Interleave, duration : 35 ms (1.04 video frame)
Interleave, preload duratio : 522 ms

Скриншоты

To download the content you need:
1. Download and install torrent client [for Windows] or for mobile system
2. Click on [Download]
Attention.
If the test YOU are NOT a ROBOT - does not work, then You are using an outdated browser.
Install the current browser and click on [Download]

Do not work with Yandex browser. Uploading files to them is erroneous.
Security: torrent client is allowed by Kaspersky.

[en.asmlocator.ru].t4806.torrent 
Torrent: Registered [ 2015-12-02 05:40 ] · 7C3A27536D7A2FBA51AE4898E96095130313DB4A

Download .torrent

Download

18 KB

Status: checked
Completed: 1 times
Size: 907 MB
terms.php
[Profile] [PM]
Display posts:    
Reply to topic

Current time is: 03-Apr 04:44

All times are UTC ± 0



You cannot post new topics in this forum
You cannot reply to topics in this forum
You cannot edit your posts in this forum
You cannot delete your posts in this forum
You cannot vote in polls in this forum
You cannot attach files in this forum
You can download files in this forum
Верим фактам, а не вранью Путина! Факт, что Правительство ведёт Россию к истреблению.
Так как численность населения падает, даже не смотря на приток эмигрантов!
Русская нация вымирает и вырождается, смешиваясь с эмигрантами!
Факт, что военных и граждан предприятий заставляют голосовать за партию Единая Россия и Путина
ПОД СТРАХОМ УВОЛЬНЕНИЯ!
Нам не нужно Правительство, блокирующее личную жизнь, интернет, нарушающее сохранность данных.
Все эти действия финансируются за счёт народа!