Уличный Король / Уличный Рыцарь / Street Knight (Альберт Магноли / Albert Magnoli) [1993, США, боевик, драма, криминал, DVDRip] VO (НТВ) + Original Eng

Reply to topic
DL-List and Torrent activity
Size:  1.46 GB   |    Registered:  4 years 4 months   |    Completed:  0 times

Seeder not seen: Never

 
   
 
 
Author Message

star21 ®

Gender: Female

Longevity: 4 years 4 months

Posts: 551945

Location: Екатеринбург

Post 02-Dec-2015 05:42

[Quote]

Уличный Король / Уличный Рыцарь / Street Knight-Рыцарь новой эпохи.
Стремительный и неуловимый.
Он всегда попадает в цель.
- Год выпуска: 1993
Страна: США
Жанр: боевик, драма, криминал
Продолжительность: 01:26:36
Перевод: Студийный (одноголосый закадровый) - НТВ
Cубтитры: нет
Оригинальная аудиодорожка: английский
Режиссер: Альберт Магноли / Albert Magnoli
В ролях: Джефф Спикмэн (Jake Barrett), Кристофер Ним (James Franklin), Льюис Ван Берген (Lt. Bill Crowe), Дженнифер Гатти (Rebecca Sanchez), Берни Кейси (Raymond), Ричард Кока (Carlos Sanchez), Стивен Лиска (Santino), Грейнджер Хайнс (Murphy), Сэл Ланди (Parker), Хэнк Стоун (Martin Cruise)-Мировая премьера: 12 марта 1993-Описание: В войну между лордами (латиноамериканцами) и бритвами (чернокожие) вмешиваются неизвестные профессионалы, стравливаю молодежные группировки, чтобы запугать своим террором весь город и взять в свои руки реальную власть.-Огромная благодарность:
- .
- собственная запись перевода с телеканала НТВ в конце 90-х годов через видеомагнитофон и оцифровка с видеокассеты.
- синхронизация перевода.-Данный перевод на трекере появляется впервые.
На русский язык фильм озвучен телекомпанией НТВ.
Кто читает текст, пока не знаю.-Рейтинг

MPAA: R - Лицам до 17 лет обязательно присутствие взрослого.-Качество видео: DVDRip
Формат видео: AVI -> //SAMPLE//
Видео: XviD, 672x512 (4:3), 25.000 fps, 2019 kbps avg
Аудио:
1 - 48 khz, AC3 Dolby Digital, 2/0 (L,R) ch, ~192 kbps [НТВ] VHSRip

MediaInfo

General
Complete name : E:\Торрент Файлы\Будущие Релизы на Трекере\1.35 - 1.46 и более гб\Уличный Рыцарь (НТВ + Оригинал).avi
Format : AVI
Format/Info : Audio Video Interleave
File size : 1.46 GiB
Duration : 1h 26mn
Overall bit rate : 2 418 Kbps
Writing application : VirtualDubMod 1.5.10.3 | www.virtualdub-fr.org || (build 2550/release)
Writing library : VirtualDubMod build 2550/release
Video
ID : 0
Format : MPEG-4 Visual
Format profile : Advanced Simple@L5
Format settings, BVOP : 1
Format settings, QPel : No
Format settings, GMC : No warppoints
Format settings, Matrix : Custom
Codec ID : XVID
Codec ID/Hint : XviD
Duration : 1h 26mn
Bit rate : 2 019 Kbps
Width : 672 pixels
Height : 512 pixels
Display aspect ratio : 4:3
Frame rate : 25.000 fps
Color space : YUV
Chroma subsampling : 4:2:0
Bit depth : 8 bits
Scan type : Progressive
Compression mode : Lossy
Bits/(Pixel*Frame) : 0.235
Stream size : 1.22 GiB (84%)
Writing library : XviD 1.2.1 (UTC 2008-12-04)
Audio #1
ID : 1
Format : AC-3
Format/Info : Audio Coding 3
Mode extension : CM (complete main)
Format settings, Endianness : Big
Codec ID : 2000
Duration : 1h 26mn
Bit rate mode : Constant
Bit rate : 192 Kbps
Channel(s) : 2 channels
Channel positions : Front: L R
Sampling rate : 48.0 KHz
Compression mode : Lossy
Delay relative to video : 14ms
Stream size : 119 MiB (8%)
Alignment : Split accross interleaves
Interleave, duration : 40 ms (1.00 video frame)
Interleave, preload duratio : 500 ms
Language : Russian
Audio #2
ID : 2
Format : AC-3
Format/Info : Audio Coding 3
Mode extension : CM (complete main)
Format settings, Endianness : Big
Codec ID : 2000
Duration : 1h 26mn
Bit rate mode : Constant
Bit rate : 192 Kbps
Channel(s) : 2 channels
Channel positions : Front: L R
Sampling rate : 48.0 KHz
Compression mode : Lossy
Delay relative to video : 14ms
Stream size : 119 MiB (8%)
Alignment : Split accross interleaves
Interleave, duration : 40 ms (1.00 video frame)
Interleave, preload duratio : 500 ms

Скриншот c названием фильма

Скриншоты

To download the content you need:
1. Download and install torrent client [for Windows] or for mobile system
2. Click on [Download]
Attention.
If the test YOU are NOT a ROBOT - does not work, then You are using an outdated browser.
Install the current browser and click on [Download]

Do not work with Yandex browser. Uploading files to them is erroneous.
Security: torrent client is allowed by Kaspersky.

[en.asmlocator.ru].t4805.torrent 
Torrent: Registered [ 2015-12-02 05:40 ] · 956C2BCED44F49CA68A22D60DEE4103DAE617F37

Download .torrent

Download

15 KB

Status: checked
Completed: 0 times
Size: 1.46 GB
terms.php
[Profile] [PM]
Display posts:    
Reply to topic

Current time is: 05-Apr 05:04

All times are UTC ± 0



You cannot post new topics in this forum
You cannot reply to topics in this forum
You cannot edit your posts in this forum
You cannot delete your posts in this forum
You cannot vote in polls in this forum
You cannot attach files in this forum
You can download files in this forum
Верим фактам, а не вранью Путина! Факт, что Правительство ведёт Россию к истреблению.
Так как численность населения падает, даже не смотря на приток эмигрантов!
Русская нация вымирает и вырождается, смешиваясь с эмигрантами!
Факт, что военных и граждан предприятий заставляют голосовать за партию Единая Россия и Путина
ПОД СТРАХОМ УВОЛЬНЕНИЯ!
Нам не нужно Правительство, блокирующее личную жизнь, интернет, нарушающее сохранность данных.
Все эти действия финансируются за счёт народа!