Убежище / Логово / Hideaway (Бретт Леонард / Brett Leonard) [1995, США, фантастика, ужасы, триллер, мистика, WEB-DLRip] AVO (Андрей Гаврилов)

Reply to topic
DL-List and Torrent activity
Size:  1.37 GB   |    Registered:  4 years 3 months   |    Completed:  0 times

Seeder not seen: Never

 
   
 
 
Author Message

star21 ®

Gender: Female

Longevity: 4 years 4 months

Posts: 551945

Location: Екатеринбург

Post 02-Dec-2015 05:42

[Quote]

Убежище / Логово / Hideaway
Страна: США
Жанр: фантастика, ужасы, триллер, мистика
Год выпуска: 1995
Продолжительность: 01:45:53
Перевод: Авторский (одноголосый закадровый) Андрей Гаврилов
Cубтитры: нет
Режиссер: Бретт Леонард / Brett Leonard
В ролях: Джефф Голдблюм, Кристина Лахти, Алисия Силверстоун, Джереми Систо, Альфред Молина, Рэй Доун Чонг, Кеннет Уэлш, Сьюзи Йоахим, Ширли Бродерик, Том МакБет, Джоэли Коллинз, Роджер Р. Кросс, Майкл Джеймс МакДональд, Дон С. Дэвис, Ребекка Тулан, Хиро Канагава, Джейми Нокс, Норма Жан Уик, Тиффани Фостер, Мара Дуронслет, Айрис Куинн, Наташа Морли, Сара Стрэйндж.
Описание: Доктор Надбер возвращает Хэтча Хэррисона к жизни через 20 минут после клинической смерти. После этого Хэтча стали преследовать видения изощренных убийств, жертвой одного из которых должна стать его дочь Реджина. Сообщения о пропавших девушках появляются в газетах, но тел не находят. Пытаясь предотвратить смерть Реджины, Хэтч сталкивается в этом мистическом триллере с потусторонними силами, властно вторгающимися в реальную жизнь через дверь, приоткрытую доктором Надбером, сын которого покончил собой, принеся себя в жертву Сатане. (Иванов М.)
Доп. информация: за дорогу Гаврилова спасибо DeASS.
Релиз
Сэмпл: https://yadi.sk/i/8P-RqTWjjCchD
Качество видео: WEB-DLRip
Формат видео: AVI
Видео: 720x304 (2.37:1), 23.976 fps, XviD build 50 ~1648 kbps avg, 0.31 bit/pixel
Аудио: 48 kHz, AC3 Dolby Digital, 2/0 (L,R) ch, ~192 kbps

MediaInfo

Убежище - Hideaway [by Edich2].avi
Format : AVI
Format/Info : Audio Video Interleave
File size : 1.37 GiB
Duration : 1h 45mn
Overall bit rate : 1 850 Kbps
Movie name : Убежище - Hideaway [by Edich2]
Director : by Edich2
Writing application : VirtualDubMod 1.5.10.2 (build 2540/release)
Comment : RuTracker.org
Video
ID : 0
Format : MPEG-4 Visual
Format profile : Advanced Simple@L5
Format settings, BVOP : 1
Format settings, QPel : No
Format settings, GMC : No warppoints
Format settings, Matrix : Default (MPEG)
Codec ID : XVID
Codec ID/Hint : XviD
Duration : 1h 45mn
Bit rate : 1 649 Kbps
Width : 720 pixels
Height : 304 pixels
Display aspect ratio : 2.35:1
Frame rate : 23.976 fps
Color space : YUV
Chroma subsampling : 4:2:0
Bit depth : 8 bits
Scan type : Progressive
Compression mode : Lossy
Bits/(Pixel*Frame) : 0.314
Stream size : 1.22 GiB (89%)
Writing library : XviD 1.2.1 (UTC 2008-12-04)
Audio
ID : 1
Format : AC-3
Format/Info : Audio Coding 3
Mode extension : CM (complete main)
Format settings, Endianness : Big
Codec ID : 2000
Duration : 1h 45mn
Bit rate mode : Constant
Bit rate : 192 Kbps
Channel(s) : 2 channels
Channel positions : Front: L R
Sampling rate : 48.0 KHz
Bit depth : 16 bits
Compression mode : Lossy
Stream size : 145 MiB (10%)
Alignment : Split accross interleaves
Interleave, duration : 42 ms (1.00 video frame)
Interleave, preload duration : 500 ms

Скриншоты



To download the content you need:
1. Download and install torrent client [for Windows] or for mobile system
2. Click on [Download]
Attention.
If the test YOU are NOT a ROBOT - does not work, then You are using an outdated browser.
Install the current browser and click on [Download]

Do not work with Yandex browser. Uploading files to them is erroneous.
Security: torrent client is allowed by Kaspersky.

[en.asmlocator.ru].t4804.torrent 
Torrent: Registered [ 2015-12-02 05:40 ] · AD59778C517C839B70D10390D01EBE85E7072BC1

Download .torrent

Download

14 KB

Status: checked
Completed: 0 times
Size: 1.37 GB
terms.php
[Profile] [PM]
Display posts:    
Reply to topic

Current time is: 31-Mar 15:33

All times are UTC ± 0



You cannot post new topics in this forum
You cannot reply to topics in this forum
You cannot edit your posts in this forum
You cannot delete your posts in this forum
You cannot vote in polls in this forum
You cannot attach files in this forum
You can download files in this forum
Верим фактам, а не вранью Путина! Факт, что Правительство ведёт Россию к истреблению.
Так как численность населения падает, даже не смотря на приток эмигрантов!
Русская нация вымирает и вырождается, смешиваясь с эмигрантами!
Факт, что военных и граждан предприятий заставляют голосовать за партию Единая Россия и Путина
ПОД СТРАХОМ УВОЛЬНЕНИЯ!
Нам не нужно Правительство, блокирующее личную жизнь, интернет, нарушающее сохранность данных.
Все эти действия финансируются за счёт народа!