Изгой / Cast Away (Роберт Земекис / Robert Zemeckis) [2000, США, драма, приключения, VHSRip] [Fullscreen] DVO (Премьер Видео Фильм)

Reply to topic
DL-List and Torrent activity
Size:  1.47 GB   |    Registered:  4 years 4 months   |    Completed:  0 times

Seeder not seen: 2 years 2 months

 
   
 
 
Author Message

star21 ®

Gender: Female

Longevity: 4 years 4 months

Posts: 551945

Location: Екатеринбург

Post 02-Dec-2015 05:42

[Quote]

Изгой / Cast Away
[Full Screen]
Страна: США
Жанр: драма, приключения
Год выпуска: 2000
Продолжительность: 02:17:50
Перевод: Профессиональный (двухголосый закадровый) Премьер Видео Фильм
Cубтитры: нет
Режиссер: Роберт Земекис / Robert Zemeckis
В ролях: Том Хэнкс (Chuck Noland), Хелен Хант (Kelly Frears), Крис Нот (Jerry Lovett), Ник Сирси (Stan), Дженнифер Льюис (Becca Twig), Пол Санчез (Ramon), Лари Уайт (Bettina Peterson), Леонид Ситер (Fyodor), Дэвид Брукс (Dick Peterson), Елена Папович (Beautiful Russian Woman)
Описание: Герой этого фильма, Чак Ноланд, — сотрудник всемирно известной службы доставки «Федерал Экспресс». Чак — скрупулезный практик и неисправимый педант. Жизнь Ноланда, высокопоставленного инспектора международных отделений «ФедЕкс» расписана по минутам. И этих драгоценных минут катастрофически не хватает ни на личную жизнь, ни на любимую женщину… Однако, безжалостная судьба заставила Ноланда иначе взглянуть на отпущенное ему время… Самолет, на котором путешествует Чак, падает в океан. Инженер, единственный, кому посчастливилось остаться в живых, попадает на необитаемый остров. Здесь Нолану предстоит провести мучительно долгие годы в жестокой битве за выживание…
Доп. информация: Оцифровка лицензионной VHS (личный архив) и получение VHSRip alenavova
Эксклюзив для rutracker.org. При размещении данного релиза на других сайтах ссылка на автора alenavova обязательна.

Релиз
Сэмпл: https://yadi.sk/i/6exfCxGNjFA98
Качество видео: VHSRip
Формат видео: AVI
Видео: 704x528 (1.33:1), 25 fps, XviD build 50 ~1320 kbps avg, 0.14 bit/pixel
Аудио: 48 kHz, AC3 Dolby Digital, 2/0 (L,R) ch, ~192 kbps

MediaInfo

Изгой - Cast Away (by alenavova).avi
Format : AVI
Format/Info : Audio Video Interleave
File size : 1.47 GiB
Duration : 2h 17mn
Overall bit rate : 1 523 Kbps
Movie name : Изгой - Cast Away (by alenavova)
Director : by alenavova
Writing application : Nandub v1.0rc2
Copyright : Edich2
Comment : RuTracker.org
Video
ID : 0
Format : MPEG-4 Visual
Format profile : Advanced Simple@L5
Format settings, BVOP : 1
Format settings, QPel : No
Format settings, GMC : No warppoints
Format settings, Matrix : Default (MPEG)
Codec ID : XVID
Codec ID/Hint : XviD
Duration : 2h 17mn
Bit rate : 1 321 Kbps
Width : 704 pixels
Height : 528 pixels
Display aspect ratio : 4:3
Frame rate : 25.000 fps
Color space : YUV
Chroma subsampling : 4:2:0
Bit depth : 8 bits
Scan type : Progressive
Compression mode : Lossy
Bits/(Pixel*Frame) : 0.142
Stream size : 1.27 GiB (87%)
Writing library : XviD 1.2.1 (UTC 2008-12-04)
Audio
ID : 1
Format : AC-3
Format/Info : Audio Coding 3
Mode extension : CM (complete main)
Format settings, Endianness : Big
Codec ID : 2000
Duration : 2h 17mn
Bit rate mode : Constant
Bit rate : 192 Kbps
Channel(s) : 2 channels
Channel positions : Front: L R
Sampling rate : 48.0 KHz
Bit depth : 16 bits
Compression mode : Lossy
Stream size : 189 MiB (13%)
Alignment : Split accross interleaves
Interleave, duration : 40 ms (1.00 video frame)
Interleave, preload duration : 500 ms

Скриншоты


To download the content you need:
1. Download and install torrent client [for Windows] or for mobile system
2. Click on [Download]
Attention.
If the test YOU are NOT a ROBOT - does not work, then You are using an outdated browser.
Install the current browser and click on [Download]

Do not work with Yandex browser. Uploading files to them is erroneous.
Security: torrent client is allowed by Kaspersky.

[en.asmlocator.ru].t4800.torrent 
Torrent: Registered [ 2015-12-02 05:40 ] · B24203188EC37EB294A21C01919757452522CF7C

Download .torrent

Download

15 KB

Status: checked
Completed: 0 times
Size: 1.47 GB
terms.php
[Profile] [PM]
Display posts:    
Reply to topic

Current time is: 03-Apr 03:29

All times are UTC ± 0



You cannot post new topics in this forum
You cannot reply to topics in this forum
You cannot edit your posts in this forum
You cannot delete your posts in this forum
You cannot vote in polls in this forum
You cannot attach files in this forum
You can download files in this forum
Верим фактам, а не вранью Путина! Факт, что Правительство ведёт Россию к истреблению.
Так как численность населения падает, даже не смотря на приток эмигрантов!
Русская нация вымирает и вырождается, смешиваясь с эмигрантами!
Факт, что военных и граждан предприятий заставляют голосовать за партию Единая Россия и Путина
ПОД СТРАХОМ УВОЛЬНЕНИЯ!
Нам не нужно Правительство, блокирующее личную жизнь, интернет, нарушающее сохранность данных.
Все эти действия финансируются за счёт народа!