С меня хватит! / Falling Down (Джоэл Шумахер / Joel Schumacher) [1993, США, Франция, Великобритания, триллер, драма, BDRip] Dub (Ленфильм) + Original Eng

Reply to topic
DL-List and Torrent activity
Size:  2.18 GB   |    Registered:  4 years 4 months   |    Completed:  1 time

Seeder not seen: 5 months 19 days

 
   
 
 
Author Message

star21 ®

Gender: Female

Longevity: 4 years 5 months

Posts: 551945

Location: Екатеринбург

Post 02-Dec-2015 05:42

[Quote]

С меня хватит! / Falling Down
Страна: США, Франция, Великобритания
Жанр: триллер, драма
Год выпуска: 1993
Продолжительность: 01:52:36
Перевод: Профессиональный (дублированный) Ленфильм
Cубтитры: нет
Оригинальная аудиодорожка: английский
Режиссер: Джоэл Шумахер / Joel Schumacher
В ролях: Майкл Дуглас, Роберт Дювалл, Барбара Херши, Рэйчел Тикотин, Тьюзди Уэлд, Фредерик Форрест
Описание: Неудачи преследуют Уильяма всю жизнь. Особенно этим жарким летом. На работе его отправили в бессрочный отпуск. Решением суда ему запрещено встречаться с дочкой. Обозлившись на весь мир, Уильям решается на месть. Круша всё на своём пути, он пробивается сквозь раскаленный город на день рождения к своей дочке. Люди воспринимают его как маньяка, и только опытный детектив Прендергаст знает, в чём причина агрессии Уильяма…
Доп. информация:
Видеоряд с HQCLUB от DaniLch, за что ему большое спасибо.
За синхронизацию звуковой дороги и работу со звуком огромная благодарность ale_x2008.
Кинотеатральный дубляж Ленфильма к этому фильму на трекере впервые!
Сэмпл: https://www.sendspace.com/file/895ssg
Качество видео: BDRip
Формат видео: AVI
Видео: 720x304 (2.37:1), 23.976 fps, MPEG-4 Visual, 2179 Kbps, XviD 1.2.1
Аудио 1: 48 KHz, AC3, 2 ch (mono), 192 Kbps - Dub (Ленфильм)
Аудио 2: 48 KHz, AC3, 6 ch, 384 Kbps - Original Eng

MediaInfo

General
Complete name : C:\Users\С меня хватит.avi
Format : AVI
Format/Info : Audio Video Interleave
Format profile : OpenDML
File size : 2.18 GiB
Duration : 1h 52mn
Overall bit rate : 2 773 Kbps
Movie name : С меня хватит! / Крушение / Falling Down (1993) BDRip
Director : DaniLch
Writing application : VirtualDubMod 1.5.10.2 (build 2540/release)
Writing library : VirtualDubMod build 2540/release
Video
ID : 0
Format : MPEG-4 Visual
Format profile : Advanced Simple@L5
Format settings, BVOP : 1
Format settings, QPel : No
Format settings, GMC : No warppoints
Format settings, Matrix : Custom
Codec ID : XVID
Codec ID/Hint : XviD
Duration : 1h 52mn
Bit rate : 2 179 Kbps
Width : 720 pixels
Height : 304 pixels
Display aspect ratio : 2.35:1
Frame rate : 23.976 fps
Color space : YUV
Chroma subsampling : 4:2:0
Bit depth : 8 bits
Scan type : Progressive
Compression mode : Lossy
Bits/(Pixel*Frame) : 0.415
Stream size : 1.71 GiB (79%)
Writing library : XviD 1.2.1 (UTC 2008-12-04)
Audio #1
ID : 1
Format : AC-3
Format/Info : Audio Coding 3
Mode extension : CM (complete main)
Format settings, Endianness : Big
Codec ID : 2000
Duration : 1h 52mn
Bit rate mode : Constant
Bit rate : 192 Kbps
Channel(s) : 2 channels
Channel positions : Front: L R
Sampling rate : 48.0 KHz
Bit depth : 16 bits
Compression mode : Lossy
Stream size : 155 MiB (7%)
Alignment : Split accross interleaves
Interleave, duration : 42 ms (1.00 video frame)
Interleave, preload duration : 500 ms
Audio #2
ID : 2
Format : AC-3
Format/Info : Audio Coding 3
Mode extension : CM (complete main)
Format settings, Endianness : Big
Codec ID : 2000
Duration : 1h 52mn
Bit rate mode : Constant
Bit rate : 384 Kbps
Channel(s) : 6 channels
Channel positions : Front: L C R, Side: L R, LFE
Sampling rate : 48.0 KHz
Bit depth : 16 bits
Compression mode : Lossy
Stream size : 309 MiB (14%)
Alignment : Split accross interleaves
Interleave, duration : 42 ms (1.00 video frame)
Interleave, preload duration : 500 ms

Скриншоты

To download the content you need:
1. Download and install torrent client [for Windows] or for mobile system
2. Click on [Download]
Attention.
If the test YOU are NOT a ROBOT - does not work, then You are using an outdated browser.
Install the current browser and click on [Download]

Do not work with Yandex browser. Uploading files to them is erroneous.
Security: torrent client is allowed by Kaspersky.

[en.asmlocator.ru].t4795.torrent 
Torrent: Registered [ 2015-12-02 05:40 ] · F761BA0344AA08B98CB7E2AFBE43F070EFF3B98E

Download .torrent

Download

11 KB

Status: checked
Completed: 1 times
Size: 2.18 GB
terms.php
[Profile] [PM]
Display posts:    
Reply to topic

Current time is: 08-Apr 01:04

All times are UTC ± 0



You cannot post new topics in this forum
You cannot reply to topics in this forum
You cannot edit your posts in this forum
You cannot delete your posts in this forum
You cannot vote in polls in this forum
You cannot attach files in this forum
You can download files in this forum
Верим фактам, а не вранью Путина! Факт, что Правительство ведёт Россию к истреблению.
Так как численность населения падает, даже не смотря на приток эмигрантов!
Русская нация вымирает и вырождается, смешиваясь с эмигрантами!
Факт, что военных и граждан предприятий заставляют голосовать за партию Единая Россия и Путина
ПОД СТРАХОМ УВОЛЬНЕНИЯ!
Нам не нужно Правительство, блокирующее личную жизнь, интернет, нарушающее сохранность данных.
Все эти действия финансируются за счёт народа!