Зубастики 3 / Critters 3 (Кристин Питерсон / Kristine Peterson) [1991, США, ужасы, фантастика, триллер, комедия, DVDRip-AVC] [Fullscreen] DVO (Инис) + Original Eng

Reply to topic
DL-List and Torrent activity
Size:  1.43 GB   |    Registered:  4 years 4 months   |    Completed:  0 times

Seeder not seen: 1 year 9 months

 
   
 
 
Author Message

star21 ®

Gender: Female

Longevity: 4 years 4 months

Posts: 551945

Location: Екатеринбург

Post 02-Dec-2015 05:42

[Quote]

Зубастики 3 / Critters 3 / Fullscreen
Страна: США
Жанр: ужасы, фантастика, триллер, комедия
Год выпуска: 1991
Продолжительность: 01:24:45
Перевод: Профессиональный (двухголосый закадровый) Инис
Cубтитры: нет
Оригинальная аудиодорожка: английский
Режиссер: Кристин Питерсон / Kristine Peterson
В ролях: Джон Кэлвин, Айми Брукс, Кристиан Казинс, Джозеф Казинс, Уильям Дэннис Хант, Нина Аксельрод, Леонардо ДиКаприо, Дон Кит Оппер, Джеффри Блейк, Хосе Луис Валансуэла...
Описание: На этот раз мохнатые пришельцы из космоса захватывают дом в Лос-Анджелесе. Они выгоняют на улицу всех его обитателей. Космический Охотник встает на их защиту и сам становится дичью, которую Зубастики преследуют во всех таинственных уголках дома…
Доп. информация: За исходник видео спасибо ostrvskijjp. Синхронизация звука - Dreven.
Сэмпл: http://multi-up.com/1068160
Качество видео: DVDRip-AVC
Формат видео: MKV
Видео: 716x480 (4:3) @ 716x540, 23.976 fps, AVC, ~1780 Kbps, 0.216 bits/pixel
Аудио 1: Russian, 48.0 KHz, AC3, 6 ch, 448 Kbps - Инис
Аудио 2: English, 48.0 KHz, AC3, 2 ch, 192 Kbps

Сравнение с широформатной версией

http://screenshotcomparison.com/comparison/144081

Log

avs4x264.exe: -L x264_64.exe --pass 2 --bitrate 1780 --preset medium --ref 10 --deblock -1:-1 --merange 32 --bframes 10 --direct auto --b-adapt 2 --trellis 2 --no-fast-pskip --psy-rd 1.00:0.10 --partitions all --subme 10 --me umh --rc-lookahead 50 --sar 8:9 --stats
raw [info]: 716x480p 8:9 @ 24000/1001 fps (cfr)
x264 [info]: using SAR=8/9
x264 [info]: using cpu capabilities: MMX2 SSE2Fast LZCNT
x264 [info]: profile High, level 3.1
x264 [info]: frame I:932 Avg QP:14.83 size: 51543
x264 [info]: frame P:26130 Avg QP:17.38 size: 19765
x264 [info]: frame B:94865 Avg QP:20.34 size: 5975
x264 [info]: consecutive B-frames: 1.7% 2.3% 9.0% 19.2% 13.3% 49.6% 2.1% 1.0% 0.6% 0.4% 0.8%
x264 [info]: mb I I16..4: 4.5% 86.2% 9.3%
x264 [info]: mb P I16..4: 1.5% 20.1% 1.4% P16..4: 36.0% 21.2% 14.9% 0.6% 0.2% skip: 4.1%
x264 [info]: mb B I16..4: 0.1% 1.9% 0.1% B16..8: 38.7% 10.4% 2.6% direct: 8.8% skip:37.4% L0:37.8% L1:43.3% BI:18.8%
x264 [info]: 8x8 transform intra:88.0% inter:68.6%
x264 [info]: direct mvs spatial:98.2% temporal:1.8%
x264 [info]: coded y,uvDC,uvAC intra: 90.0% 84.1% 57.7% inter: 29.7% 29.4% 4.1%
x264 [info]: i16 v,h,dc,p: 38% 15% 15% 32%
x264 [info]: i8 v,h,dc,ddl,ddr,vr,hd,vl,hu: 10% 10% 11% 8% 12% 11% 12% 11% 14%
x264 [info]: i4 v,h,dc,ddl,ddr,vr,hd,vl,hu: 9% 9% 5% 9% 16% 14% 14% 11% 13%
x264 [info]: i8c dc,h,v,p: 40% 27% 18% 15%
x264 [info]: Weighted P-Frames: Y:9.3% UV:5.8%
x264 [info]: ref P L0: 43.1% 9.9% 19.3% 6.9% 6.1% 4.0% 3.9% 2.2% 2.3% 1.9% 0.5% 0.0%
x264 [info]: ref B L0: 78.8% 10.9% 3.9% 2.1% 1.4% 1.2% 0.9% 0.5% 0.3%
x264 [info]: ref B L1: 94.8% 5.2%
x264 [info]: kb/s:1779.66
x264 [total]: encoded 121927 frames, 12.43 fps, 1779.66 kb/s

MediaInfo

General
Unique ID : 203867933153789405520633258665925730386 (0x995F8924B1173839B53C986D1CB0E052)
Complete name : C:\Critters 3 [Fullscreen].mkv
Format : Matroska
Format version : Version 4 / Version 2
File size : 1.43 GiB
Duration : 1h 24mn
Overall bit rate : 2 422 Kbps
Encoded date : UTC 2015-09-25 11:34:07
Writing application : mkvmerge v8.2.0 ('World of Adventure') 64bit
Writing library : libebml v1.3.1 + libmatroska v1.4.2
DURATION : 01:24:45.344000000
NUMBER_OF_FRAMES : 158917
NUMBER_OF_BYTES : 284779264
_STATISTICS_WRITING_APP : mkvmerge v8.2.0 ('World of Adventure') 64bit
_STATISTICS_WRITING_DATE_UT : 2015-09-25 11:34:07
_STATISTICS_TAGS : BPS DURATION NUMBER_OF_FRAMES NUMBER_OF_BYTES
Video
ID : 1
Format : AVC
Format/Info : Advanced Video Codec
Format profile : High@L3.1
Format settings, CABAC : Yes
Format settings, ReFrames : 10 frames
Codec ID : V_MPEG4/ISO/AVC
Duration : 1h 24mn
Bit rate : 1 780 Kbps
Width : 716 pixels
Height : 480 pixels
Display aspect ratio : 4:3
Frame rate mode : Constant
Frame rate : 23.976 fps
Color space : YUV
Chroma subsampling : 4:2:0
Bit depth : 8 bits
Scan type : Progressive
Bits/(Pixel*Frame) : 0.216
Stream size : 1.03 GiB (72%)
Writing library : x264 core 146 r2538 121396c
Encoding settings : cabac=1 / ref=10 / deblock=1:-1:-1 / analyse=0x3:0x133 / me=umh / subme=10 / psy=1 / psy_rd=1.00:0.10 / mixed_ref=1 / me_range=32 / chroma_me=1 / trellis=2 / 8x8dct=1 / cqm=0 / deadzone=21,11 / fast_pskip=0 / chroma_qp_offset=-3 / threads=6 / lookahead_threads=1 / sliced_threads=0 / nr=0 / decimate=1 / interlaced=0 / bluray_compat=0 / constrained_intra=0 / bframes=10 / b_pyramid=2 / b_adapt=2 / b_bias=0 / direct=3 / weightb=1 / open_gop=0 / weightp=2 / keyint=250 / keyint_min=23 / scenecut=40 / intra_refresh=0 / rc_lookahead=50 / rc=2pass / mbtree=1 / bitrate=1780 / ratetol=1.0 / qcomp=0.60 / qpmin=0 / qpmax=69 / qpstep=4 / cplxblur=20.0 / qblur=0.5 / ip_ratio=1.40 / aq=1:1.00
Language : English
Default : Yes
Forced : No
Audio #1
ID : 2
Format : AC-3
Format/Info : Audio Coding 3
Mode extension : CM (complete main)
Format settings, Endianness : Big
Codec ID : A_AC3
Duration : 1h 24mn
Bit rate mode : Constant
Bit rate : 448 Kbps
Channel(s) : 6 channels
Channel positions : Front: L C R, Side: L R, LFE
Sampling rate : 48.0 KHz
Compression mode : Lossy
Stream size : 272 MiB (19%)
Title : Инис
Language : Russian
Default : Yes
Forced : No
Audio #2
ID : 3
Format : AC-3
Format/Info : Audio Coding 3
Format profile : Dolby Digital
Mode extension : CM (complete main)
Format settings, Endianness : Big
Codec ID : A_AC3
Duration : 1h 24mn
Bit rate mode : Constant
Bit rate : 192 Kbps
Channel(s) : 2 channels
Channel positions : Front: L R
Sampling rate : 48.0 KHz
Compression mode : Lossy
Stream size : 116 MiB (8%)
Language : English
Default : No
Forced : No

Скриншоты

To download the content you need:
1. Download and install torrent client [for Windows] or for mobile system
2. Click on [Download]
Attention.
If the test YOU are NOT a ROBOT - does not work, then You are using an outdated browser.
Install the current browser and click on [Download]

Do not work with Yandex browser. Uploading files to them is erroneous.
Security: torrent client is allowed by Kaspersky.

[en.asmlocator.ru].t4793.torrent 
Torrent: Registered [ 2015-12-02 05:40 ] · 5A5141E3E1630F39F5E62C53E35240B920C39D1F

Download .torrent

Download

15 KB

Status: checked
Completed: 0 times
Size: 1.43 GB
terms.php
[Profile] [PM]
Display posts:    
Reply to topic

Current time is: 05-Apr 03:45

All times are UTC ± 0



You cannot post new topics in this forum
You cannot reply to topics in this forum
You cannot edit your posts in this forum
You cannot delete your posts in this forum
You cannot vote in polls in this forum
You cannot attach files in this forum
You can download files in this forum
Верим фактам, а не вранью Путина! Факт, что Правительство ведёт Россию к истреблению.
Так как численность населения падает, даже не смотря на приток эмигрантов!
Русская нация вымирает и вырождается, смешиваясь с эмигрантами!
Факт, что военных и граждан предприятий заставляют голосовать за партию Единая Россия и Путина
ПОД СТРАХОМ УВОЛЬНЕНИЯ!
Нам не нужно Правительство, блокирующее личную жизнь, интернет, нарушающее сохранность данных.
Все эти действия финансируются за счёт народа!