День сурка / Groundhog Day (Харольд Рэмис / Harold Ramis) [1993, США, фантастика, мелодрама, комедия, HDRip] Dub (Ленфильм)

Reply to topic
DL-List and Torrent activity
Size:  1.45 GB   |    Registered:  4 years 3 months   |    Completed:  0 times

Seeder not seen: 2 years 1 month

 
   
 
 
Author Message

star21 ®

Gender: Female

Longevity: 4 years 4 months

Posts: 551945

Location: Екатеринбург

Post 02-Dec-2015 05:42

[Quote]

День сурка / Groundhog Day
Страна: США
Жанр: фантастика, мелодрама, комедия
Год выпуска: 1993
Продолжительность: 01:41:03
Перевод: Профессиональный (дублированный) Ленфильм
Cубтитры: нет
Оригинальная аудиодорожка: нет
Режиссер: Харольд Рэмис / Harold Ramis
В ролях: Билл Мюррей, Энди МакДауэлл, Крис Эллиот, Стивен Тоболовски, Брайан Дойл-Мюррей, Марита Герати
Описание: Телевизионный комментатор Фил Коннорс каждый год приезжает в маленький городок в штате Пенсильвания на празднование Дня сурка. Но на этот раз веселье рискует зайти слишком далеко. Время сыграло с ним злую шутку: оно взяло да и остановилось.
Теперь на календаре Фила чернеет одна и та же дата — 2 февраля, из которой он никак не может выбраться. Неунывающий ведущий пытается извлечь выгоду из своего комичного положения: впереди у него уйма времени и безмятежное предсказуемое будущее.
Отныне с ним не случится ничего плохого… и ничего хорошего. У Фила осталась одна заветная мечта, простая и незамысловатая — 3 февраля…
Доп. информация:
Видеоряд взят из этой раздачи , за которую благодарим (T-1000).
За синхронизацию звуковой дороги и работу со звуком огромная благодарность ale_x2008.
Кинотеатральный дубляж Ленфильма на трекере отсутствует!
Сэмпл: https://www.sendspace.com/file/5ozw3f
Качество видео: HDRip
Формат видео: AVI
Видео: 720x384 (1.88:1), 23.976 fps, MPEG-4 Visual, 1853 Kbps, XviD 1.2.1
Аудио: 48 KHz, AC3, 2 ch (mono), 192 Kbps

MediaInfo

General
Complete name : C:\Users\День сурка (Ленфильм).avi
Format : AVI
Format/Info : Audio Video Interleave
File size : 1.45 GiB
Duration : 1h 41mn
Overall bit rate : 2 054 Kbps
Writing application : VirtualDubMod 1.5.10.3 (build 2550/release)
Writing library : VirtualDubMod build 2550/release
Original source form/Name : Movie
Video
ID : 0
Format : MPEG-4 Visual
Format profile : Advanced Simple@L5
Format settings, BVOP : 1
Format settings, QPel : No
Format settings, GMC : No warppoints
Format settings, Matrix : Custom
Codec ID : XVID
Codec ID/Hint : XviD
Duration : 1h 41mn
Bit rate : 1 853 Kbps
Width : 720 pixels
Height : 384 pixels
Display aspect ratio : 1.85:1
Frame rate : 23.976 fps
Color space : YUV
Chroma subsampling : 4:2:0
Bit depth : 8 bits
Scan type : Progressive
Compression mode : Lossy
Bits/(Pixel*Frame) : 0.280
Stream size : 1.31 GiB (90%)
Writing library : XviD 1.2.1 (UTC 2008-12-04)
Audio
ID : 1
Format : AC-3
Format/Info : Audio Coding 3
Mode extension : CM (complete main)
Format settings, Endianness : Big
Codec ID : 2000
Duration : 1h 41mn
Bit rate mode : Constant
Bit rate : 192 Kbps
Channel(s) : 2 channels
Channel positions : Front: L R
Sampling rate : 48.0 KHz
Bit depth : 16 bits
Compression mode : Lossy
Stream size : 139 MiB (9%)
Alignment : Split accross interleaves
Interleave, duration : 42 ms (1.00 video frame)
Interleave, preload duration : 500 ms

Скриншоты

Релиз перезалит 25.09.2015г. Устранён рассинхрон в некоторых эпизодах фильма.

To download the content you need:
1. Download and install torrent client [for Windows] or for mobile system
2. Click on [Download]
Attention.
If the test YOU are NOT a ROBOT - does not work, then You are using an outdated browser.
Install the current browser and click on [Download]

Do not work with Yandex browser. Uploading files to them is erroneous.
Security: torrent client is allowed by Kaspersky.

[en.asmlocator.ru].t4791.torrent 
Torrent: Registered [ 2015-12-02 05:40 ] · 9D1DE8E645DB0764EA49940448ECE96C1909D337

Download .torrent

Download

15 KB

Status: checked
Completed: 0 times
Size: 1.45 GB
terms.php
[Profile] [PM]
Display posts:    
Reply to topic

Current time is: 31-Mar 20:23

All times are UTC ± 0



You cannot post new topics in this forum
You cannot reply to topics in this forum
You cannot edit your posts in this forum
You cannot delete your posts in this forum
You cannot vote in polls in this forum
You cannot attach files in this forum
You can download files in this forum
Верим фактам, а не вранью Путина! Факт, что Правительство ведёт Россию к истреблению.
Так как численность населения падает, даже не смотря на приток эмигрантов!
Русская нация вымирает и вырождается, смешиваясь с эмигрантами!
Факт, что военных и граждан предприятий заставляют голосовать за партию Единая Россия и Путина
ПОД СТРАХОМ УВОЛЬНЕНИЯ!
Нам не нужно Правительство, блокирующее личную жизнь, интернет, нарушающее сохранность данных.
Все эти действия финансируются за счёт народа!