Акулы / Shark Attack (Боб Мисиоровски / Bob Misiorowski) [1999, США, Израиль, ЮАР, боевик, DVDRip] AVO (Юрий Сербин) + MVO (РТР)

Reply to topic
DL-List and Torrent activity
Size:  1.75 GB   |    Registered:  4 years 3 months   |    Completed:  0 times

Seeder not seen: Never

 
   
 
 
Author Message

star21 ®

Gender: Female

Longevity: 4 years 4 months

Posts: 551945

Location: Екатеринбург

Post 02-Dec-2015 05:42

[Quote]

Акулы / Shark Attack
Страна: США, Израиль, ЮАР
Жанр: боевик
Год выпуска: 1999
Продолжительность: 01:31:38
Перевод 1: Авторский (одноголосый закадровый) Юрий Сербин
Перевод 2: Профессиональный (многоголосый закадровый) РТР
Cубтитры: нет
Оригинальная аудиодорожка: нет
Режиссер: Боб Мисиоровски / Bob Misiorowski
В ролях: Каспер Ван Дин, Эрни Хадсон, Бентли Митчэм, Дженнифер МакШейн, Тони Капрари, Корделл МакКуин
Описание: Промышляющий рыбной ловлей прибрежный городок охвачен ужасом. Любой выходящий в море подвергает себя опасности нападения акул-убийц. Последней жертвой морских убийц стал специалист Морского Исследовательского Центра, похищенный неизвестными людьми и скормленный акулам.
Расследование этого зверского убийства приводит друга погибшего в лабораторию Центра, где разрабатывалась противораковая вакцина. Местная мафия выкрала технологию её производства и вводя сыворотку в тело акул, вызывала у них дикую агрессию.
Отчаянному биологу предстоит жесточайшая схватка с мафией на земле и с властвующими под водой чудовищами. Но сможет ли он остановить хищников, познавших вкус крови?
Доп. информация:
Видеоряд взят из этой раздачи , за которую благодарим IVA_77.
За звуковые дорожки с переводом Юрия Сербина с лицензионной VHS от компании "Пирамида" и с телеканала РТР большое спасибо Fikaloid.
За синхронизацию звуковой дороги c переводом Ю. Сербина и работу со звуком в отношении данной дороги огромная благодарность ale_x2008.
За синхронизацию звуковой дороги с переводом РТР огромная благодарность JUSTKANT.
Сэмпл: https://www.sendspace.com/file/gml6uc
Качество видео: DVDRip
Формат видео: AVI
Видео: 720x544, 25.000 fps, MPEG-4 Visual, 2335 Kbps, XviD 1.2.1
Аудио 1: 48 KHz, AC3, 2 ch, 192 Kbps - AVO (Ю. Сербин)
Аудио 2: 48 KHz, AC3, 2 ch, 192 Kbps - MVO (РТР)

MediaInfo

General
Complete name : J:\Готовые рипы 3\Акулы (Сербин + РТР).avi
Format : AVI
Format/Info : Audio Video Interleave
File size : 1.75 GiB
Duration : 1h 31mn
Overall bit rate : 2 733 Kbps
Writing application : VirtualDubMod 1.5.10.2 (build 2540/release)
Writing library : VirtualDubMod build 2540/release
Video
ID : 0
Format : MPEG-4 Visual
Format profile : Advanced Simple@L5
Format settings, BVOP : 1
Format settings, QPel : No
Format settings, GMC : No warppoints
Format settings, Matrix : Custom
Codec ID : XVID
Codec ID/Hint : XviD
Duration : 1h 31mn
Bit rate : 2 335 Kbps
Width : 720 pixels
Height : 544 pixels
Display aspect ratio : 4:3
Frame rate : 25.000 fps
Color space : YUV
Chroma subsampling : 4:2:0
Bit depth : 8 bits
Scan type : Progressive
Compression mode : Lossy
Bits/(Pixel*Frame) : 0.238
Stream size : 1.49 GiB (85%)
Writing library : XviD 1.2.1 (UTC 2008-12-04)
Audio #1
ID : 1
Format : AC-3
Format/Info : Audio Coding 3
Mode extension : CM (complete main)
Format settings, Endianness : Big
Codec ID : 2000
Duration : 1h 31mn
Bit rate mode : Constant
Bit rate : 192 Kbps
Channel(s) : 2 channels
Channel positions : Front: L R
Sampling rate : 48.0 KHz
Bit depth : 16 bits
Compression mode : Lossy
Stream size : 126 MiB (7%)
Alignment : Split accross interleaves
Interleave, duration : 40 ms (1.00 video frame)
Interleave, preload duration : 500 ms
Audio #2
ID : 2
Format : AC-3
Format/Info : Audio Coding 3
Mode extension : CM (complete main)
Format settings, Endianness : Big
Codec ID : 2000
Duration : 1h 31mn
Bit rate mode : Constant
Bit rate : 192 Kbps
Channel(s) : 2 channels
Channel positions : Front: L R
Sampling rate : 48.0 KHz
Bit depth : 16 bits
Compression mode : Lossy
Stream size : 126 MiB (7%)
Alignment : Split accross interleaves
Interleave, duration : 40 ms (1.00 video frame)
Interleave, preload duration : 500 ms

Скриншот c названием фильма

Скриншоты

Релиз перезалит 26.09.2015г. в связи с добавлением перевода телеканала РТР.

To download the content you need:
1. Download and install torrent client [for Windows] or for mobile system
2. Click on [Download]
Attention.
If the test YOU are NOT a ROBOT - does not work, then You are using an outdated browser.
Install the current browser and click on [Download]

Do not work with Yandex browser. Uploading files to them is erroneous.
Security: torrent client is allowed by Kaspersky.

[en.asmlocator.ru].t4790.torrent 
Torrent: Registered [ 2015-12-02 05:40 ] · B0C41E143E63937189FE57FE0E030B70362B4B65

Download .torrent

Download

18 KB

Status: checked
Completed: 0 times
Size: 1.75 GB
terms.php
[Profile] [PM]
Display posts:    
Reply to topic

Current time is: 28-Mar 23:32

All times are UTC ± 0



You cannot post new topics in this forum
You cannot reply to topics in this forum
You cannot edit your posts in this forum
You cannot delete your posts in this forum
You cannot vote in polls in this forum
You cannot attach files in this forum
You can download files in this forum
Верим фактам, а не вранью Путина! Факт, что Правительство ведёт Россию к истреблению.
Так как численность населения падает, даже не смотря на приток эмигрантов!
Русская нация вымирает и вырождается, смешиваясь с эмигрантами!
Факт, что военных и граждан предприятий заставляют голосовать за партию Единая Россия и Путина
ПОД СТРАХОМ УВОЛЬНЕНИЯ!
Нам не нужно Правительство, блокирующее личную жизнь, интернет, нарушающее сохранность данных.
Все эти действия финансируются за счёт народа!