Вольный Охотник / По кровавому следу / Bounty Tracker (Курт Андерсон / Kurt Anderson) [1993, США, Боевик, DVDRip-AVC] DVO (ТВЦ) + MVO + Sub Rus + Original Eng

Reply to topic
DL-List and Torrent activity
Size:  2.17 GB   |    Registered:  4 years 3 months   |    Completed:  0 times

Seeder not seen: Never

 
   
 
 
Author Message

star21 ®

Gender: Female

Longevity: 4 years 4 months

Posts: 551945

Location: Екатеринбург

Post 02-Dec-2015 05:41

[Quote]

Вольный Охотник / По кровавому следу / Bounty Tracker
Страна: США
Жанр: Боевик
Год выпуска: 1993
Продолжительность: 01:26:31
Перевод: Профессиональный (двухголосый закадровый) ТВЦ
Перевод 2: Профессиональный (многоголосый закадровый)
Cубтитры: русские
Оригинальная аудиодорожка: английский
Режиссер: Курт Андерсон / Kurt Anderson
В ролях: Лоренцо Ламас, Маттиас Хьюз, Синди Пасс, Эрик Мэнскер, Брукс Гарднер, Юджин Роберт Глэйзер, Джадд Омен, Эдди Фрайэс, Джордж Перес, Уип Хабли, Пол Реджина, Стив Коэн, Элиса Кристенсен, Лео Ли, Рэй Ласка, Чарлз Сейксэс, Кен Обер, Марти Дудек
Описание: Лоренцо Ламас в роли профессионального охотника за преступниками возвращает в руки правосудия тех из них, кто до суда был отпущен под залог, но сбежал. Работу он свою выполняет лихо и артистично. Дерется сами знаете как. Его брат решил дать показания по делу, связанному с отмывом денег для мафии, и бандиты стали зверски убивать всех, так или иначе имеющих отношение к уликам. А Ламас как раз приехал в Лос-Анджелес навестить братишку. Помощь его пришлась весьма кстати... Динамичный, зрелищный боевик без особых претензий, но в лучших традициях жанра. Ламас хорош как всегда и внешне, и в деле. Ну а Хьюз в роли злодея-великана давно съел слона по части злодейства.

Автор: BEN-BEN
Релиз:
Качество видео: DVDRip-AVC
Формат видео: MKV
Видео: 704x544 (1,294), 25,000 fps, ~ 2499 kbps avg
Аудио: 48 kHz, AC3 Dolby Digital, 2/0 (L,R) ch, ~192 kbps - ТВЦ
Аудио 2: 48 kHz, AC3 Dolby Digital, 3/2 (L,R) ch, ~448 kbps - MVO
Аудио 3: 48 kHz, AC3 Dolby Digital, 3/2 (L,R) ch, ~448 kbps - Original Eng

MediaInfo

Общее
Уникальный идентификатор : 171855531140438905593159070290564686789 (0x814A2BDDCD8E2D3ABD603315FBB123C5)
Полное имя : C:\Documents and Settings\User\Рабочий стол\Фильмы BEN-BEN\Voliniy ohotnik.1993.DVDRip-AVC.BEN-BEN.mkv
Формат : Matroska
Версия формата : Version 4 / Version 2
Размер файла : 2,17 Гбайт
Продолжительность : 1 ч. 26 м.
Общий поток : 3590 Кбит/сек
Дата кодирования : UTC 2015-09-25 14:37:12
Программа кодирования : mkvmerge v7.8.0 ('River Man') 32bit built on Apr 3 2015 12:11:22
Библиотека кодирования : libebml v1.3.1 + libmatroska v1.4.2
DURATION : 01:21:53.870000000
NUMBER_OF_FRAMES : 558
NUMBER_OF_BYTES : 44630
_STATISTICS_WRITING_APP : mkvmerge v7.8.0 ('River Man') 32bit built on Apr 3 2015 12:11:22
_STATISTICS_WRITING_DATE_UTC : 2015-09-25 14:37:12
_STATISTICS_TAGS : BPS DURATION NUMBER_OF_FRAMES NUMBER_OF_BYTES
Видео
Идентификатор : 1
Формат : AVC
Формат/Информация : Advanced Video Codec
Профиль формата : High@L4.1
Параметр CABAC формата : Да
Параметр ReFrames формата : 12 кадров
Идентификатор кодека : V_MPEG4/ISO/AVC
Продолжительность : 1 ч. 26 м.
Битрейт : 2499 Кбит/сек
Ширина : 704 пикселя
Высота : 544 пикселя
Соотношение сторон : 1,294
Режим частоты кадров : Постоянный
Частота кадров : 25,000 кадров/сек
Цветовое пространство : YUV
Субдискретизация насыщенности : 4:2:0
Битовая глубина : 8 бит
Тип развёртки : Прогрессивная
Бит/(Пиксели*Кадры) : 0.261
Размер потока : 1,47 Гбайт (68%)
Библиотека кодирования : x264 core 146 r2538 121396c
Настройки программы : cabac=1 / ref=12 / deblock=1:-3:-3 / analyse=0x3:0x133 / me=umh / subme=11 / psy=1 / psy_rd=1.00:0.20 / mixed_ref=1 / me_range=32 / chroma_me=1 / trellis=2 / 8x8dct=1 / cqm=0 / deadzone=21,11 / fast_pskip=1 / chroma_qp_offset=-3 / threads=3 / lookahead_threads=1 / sliced_threads=0 / nr=0 / decimate=1 / interlaced=0 / bluray_compat=0 / constrained_intra=0 / bframes=8 / b_pyramid=2 / b_adapt=2 / b_bias=0 / direct=3 / weightb=1 / open_gop=0 / weightp=2 / keyint=250 / keyint_min=25 / scenecut=40 / intra_refresh=0 / rc_lookahead=60 / rc=2pass / mbtree=1 / bitrate=2499 / ratetol=1.0 / qcomp=0.60 / qpmin=0 / qpmax=69 / qpstep=4 / cplxblur=20.0 / qblur=0.5 / ip_ratio=1.40 / aq=1:1.00
Default : Да
Forced : Нет
Аудио #1
Идентификатор : 2
Формат : AC-3
Формат/Информация : Audio Coding 3
Расширение режима : CM (complete main)
Параметр Endianness формата : Big
Идентификатор кодека : A_AC3
Продолжительность : 1 ч. 26 м.
Вид битрейта : Постоянный
Битрейт : 192 Кбит/сек
Каналы : 2 канала
Расположение каналов : Front: L R
Частота : 48,0 КГц
Битовая глубина : 16 бит
Метод сжатия : С потерями
Размер потока : 119 Мбайт (5%)
Заголовок : ТВЦ
Язык : Russian
Default : Да
Forced : Нет
Аудио #2
Идентификатор : 3
Формат : AC-3
Формат/Информация : Audio Coding 3
Расширение режима : CM (complete main)
Параметр Endianness формата : Big
Идентификатор кодека : A_AC3
Продолжительность : 1 ч. 26 м.
Вид битрейта : Постоянный
Битрейт : 448 Кбит/сек
Каналы : 6 каналов
Расположение каналов : Front: L C R, Side: L R, LFE
Частота : 48,0 КГц
Битовая глубина : 16 бит
Метод сжатия : С потерями
Размер потока : 277 Мбайт (12%)
Заголовок : R2
Язык : Russian
Default : Нет
Forced : Нет
Аудио #3
Идентификатор : 4
Формат : AC-3
Формат/Информация : Audio Coding 3
Расширение режима : CM (complete main)
Параметр Endianness формата : Big
Идентификатор кодека : A_AC3
Продолжительность : 1 ч. 26 м.
Вид битрейта : Постоянный
Битрейт : 448 Кбит/сек
Каналы : 6 каналов
Расположение каналов : Front: L C R, Side: L R, LFE
Частота : 48,0 КГц
Битовая глубина : 16 бит
Метод сжатия : С потерями
Размер потока : 277 Мбайт (12%)
Язык : English
Default : Нет
Forced : Нет
Текст
Идентификатор : 5
Формат : UTF-8
Идентификатор кодека : S_TEXT/UTF8
Идентификатор кодека/Информация : UTF-8 Plain Text
Заголовок : Full
Язык : Russian
Default : Нет
Forced : Нет

Скриншоты


To download the content you need:
1. Download and install torrent client [for Windows] or for mobile system
2. Click on [Download]
Attention.
If the test YOU are NOT a ROBOT - does not work, then You are using an outdated browser.
Install the current browser and click on [Download]

Do not work with Yandex browser. Uploading files to them is erroneous.
Security: torrent client is allowed by Kaspersky.

[en.asmlocator.ru].t4788.torrent 
Torrent: Registered [ 2015-12-02 05:40 ] · 7741B33C2A14D5E3C04D3A77D6E11AA63E911C34

Download .torrent

Download

11 KB

Status: checked
Completed: 0 times
Size: 2.17 GB
terms.php
[Profile] [PM]
Display posts:    
Reply to topic

Current time is: 31-Mar 16:05

All times are UTC ± 0



You cannot post new topics in this forum
You cannot reply to topics in this forum
You cannot edit your posts in this forum
You cannot delete your posts in this forum
You cannot vote in polls in this forum
You cannot attach files in this forum
You can download files in this forum
Верим фактам, а не вранью Путина! Факт, что Правительство ведёт Россию к истреблению.
Так как численность населения падает, даже не смотря на приток эмигрантов!
Русская нация вымирает и вырождается, смешиваясь с эмигрантами!
Факт, что военных и граждан предприятий заставляют голосовать за партию Единая Россия и Путина
ПОД СТРАХОМ УВОЛЬНЕНИЯ!
Нам не нужно Правительство, блокирующее личную жизнь, интернет, нарушающее сохранность данных.
Все эти действия финансируются за счёт народа!