Вольный охотник / По кровавому следу / Bounty Tracker (Курт Андерсон / Kurt Anderson) [1993, США, Боевик, DVDRip] MVO (R2) + DVO (ТВЦ)

Reply to topic
DL-List and Torrent activity
Size:  749 MB   |    Registered:  4 years 4 months   |    Completed:  0 times

Seeder not seen: Never

 
   
 
 
Author Message

star21 ®

Gender: Female

Longevity: 4 years 5 months

Posts: 551945

Location: Екатеринбург

Post 02-Dec-2015 05:41

[Quote]

Вольный охотник / По кровавому следу / Bounty Tracker
Страна: США
Жанр: Боевик
Год выпуска: 1993
Продолжительность: 01:26:31
Перевод: Профессиональный (многоголосый закадровый) R2
Перевод 2: Профессиональный (двухголосый закадровый) ТВЦ
Cубтитры: нет
Режиссер: Курт Андерсон / Kurt Anderson
В ролях: Лоренцо Ламас, Маттиас Хьюз, Синди Пасс, Эрик Мэнскер, Брукс Гарднер, Юджин Роберт Глэйзер, Джадд Омен, Эдди Фрайэс, Джордж Перес, Уип Хабли
Описание: Банда профессиональных убийц, руководимая Эриком Гауссом, начинает уничтожать свидетелей и улики после того, как один из свидетелей стал давать показания против босса мафии Луи Саразена.
Среди их жертв оказывается Пол Дамон, сотрудник фирмы, отмывающей мафиозные деньги. Его брат Джонни-охотник за преступниками, объявленными в розыск — приезжает в Лос-Анджелес и оказывается в самой гуще событий. Теперь в поисках негодяев у него есть и личный мотив…

Автор: BEN-BEN
Релиз:
Качество видео: DVDRip
Формат видео: AVI
Видео: 640x496 (1.29:1), 25 fps, XviD build 73 ~938 kbps avg, 0.12 bit/pixel
Аудио: 48 kHz, MPEG Layer 3, 2 ch, ~128.00 kbps avg - R2
Аудио 2: 48 kHz, MPEG Layer 3, 2 ch, ~128.00 kbps avg - ТВЦ

MediaInfo

Общее
Полное имя : C:\Documents and Settings\User\Рабочий стол\Фильмы BEN-BEN\Bounty Tracker.1993.DVDRip.BEN-BEN.avi
Формат : AVI
Формат/Информация : Audio Video Interleave
Размер файла : 749 Мбайт
Продолжительность : 1 ч. 26 м.
Общий поток : 1210 Кбит/сек
Программа кодирования : VirtualDubMod 1.5.10.2 (build 2540/release)
Библиотека кодирования : VirtualDubMod build 2540/release
Видео
Идентификатор : 0
Формат : MPEG-4 Visual
Профиль формата : Advanced Simple@L5
Параметр BVOP формата : 1
Параметр QPel формата : Нет
Параметр GMC формата : Без точки перехода
Параметр матрицы формата : Выборочная
Идентификатор кодека : XVID
Идентификатор кодека/Подсказка : XviD
Продолжительность : 1 ч. 26 м.
Битрейт : 939 Кбит/сек
Ширина : 640 пикселей
Высота : 496 пикселей
Соотношение сторон : 1,290
Частота кадров : 25,000 кадров/сек
Цветовое пространство : YUV
Субдискретизация насыщенности : 4:2:0
Битовая глубина : 8 бит
Тип развёртки : Прогрессивная
Метод сжатия : С потерями
Бит/(Пиксели*Кадры) : 0.118
Размер потока : 581 Мбайт (78%)
Библиотека кодирования : XviD 73
Аудио #1
Идентификатор : 1
Формат : MPEG Audio
Версия формата : Version 1
Профиль формата : Layer 3
Идентификатор кодека : 55
Идентификатор кодека/Подсказка : MP3
Продолжительность : 1 ч. 26 м.
Вид битрейта : Постоянный
Битрейт : 128 Кбит/сек
Каналы : 2 канала
Частота : 48,0 КГц
Метод сжатия : С потерями
Размер потока : 79,2 Мбайт (11%)
Выравнивание : Соединение по промежуткам
Продолжительность промежутка : 40 мс. (1,00 видеокадр)
Время предзагрузки промежутка : 504 мс.
Библиотека кодирования : LAME3.99r
Настройки программы : -m s -V 4 -q 2 -lowpass 17 -b 128
Аудио #2
Идентификатор : 2
Формат : MPEG Audio
Версия формата : Version 1
Профиль формата : Layer 3
Идентификатор кодека : 55
Идентификатор кодека/Подсказка : MP3
Продолжительность : 1 ч. 26 м.
Вид битрейта : Постоянный
Битрейт : 128 Кбит/сек
Каналы : 2 канала
Частота : 48,0 КГц
Метод сжатия : С потерями
Размер потока : 79,2 Мбайт (11%)
Выравнивание : Соединение по промежуткам
Продолжительность промежутка : 40 мс. (1,00 видеокадр)
Время предзагрузки промежутка : 504 мс.
Библиотека кодирования : LAME3.99r
Настройки программы : -m s -V 4 -q 2 -lowpass 17 -b 128

Скриншоты


Сравнение

Перекроп сверху, снизу и недокроп справа.
http://screenshotcomparison.com/comparison/144168

To download the content you need:
1. Download and install torrent client [for Windows] or for mobile system
2. Click on [Download]
Attention.
If the test YOU are NOT a ROBOT - does not work, then You are using an outdated browser.
Install the current browser and click on [Download]

Do not work with Yandex browser. Uploading files to them is erroneous.
Security: torrent client is allowed by Kaspersky.

[en.asmlocator.ru].t4787.torrent 
Torrent: Registered [ 2015-12-02 05:40 ] · E0D0EFC36810419F7A25BB079E8C657C51DB09D7

Download .torrent

Download

15 KB

Status: checked
Completed: 0 times
Size: 749 MB
terms.php
[Profile] [PM]
Display posts:    
Reply to topic

Current time is: 08-Apr 02:29

All times are UTC ± 0



You cannot post new topics in this forum
You cannot reply to topics in this forum
You cannot edit your posts in this forum
You cannot delete your posts in this forum
You cannot vote in polls in this forum
You cannot attach files in this forum
You can download files in this forum
Верим фактам, а не вранью Путина! Факт, что Правительство ведёт Россию к истреблению.
Так как численность населения падает, даже не смотря на приток эмигрантов!
Русская нация вымирает и вырождается, смешиваясь с эмигрантами!
Факт, что военных и граждан предприятий заставляют голосовать за партию Единая Россия и Путина
ПОД СТРАХОМ УВОЛЬНЕНИЯ!
Нам не нужно Правительство, блокирующее личную жизнь, интернет, нарушающее сохранность данных.
Все эти действия финансируются за счёт народа!