Напролом / The Heist / Hostile Force (Майкл Кеннеди / Michael Kennedy) [1997, Германия, Канада, США, боевик, криминал, DVDRip] AVO (Визгунов)

Reply to topic
DL-List and Torrent activity
Size:  1.37 GB   |    Registered:  4 years 4 months   |    Completed:  0 times

Seeder not seen: Never

 
   
 
 
Author Message

star21 ®

Gender: Female

Longevity: 4 years 4 months

Posts: 551945

Location: Екатеринбург

Post 02-Dec-2015 05:41

[Quote]

Напролом / The Heist / Hostile Force
Страна: Германия, Канада, США
Жанр: боевик, криминал
Год выпуска: 1997
Продолжительность: 01:38:13
Перевод: Авторский (одноголосый закадровый) Визгунов
Внимание!!! Тут Визгунов искаверкан пиратами (так было на VHS!!). Тут он совершенно не узнаваемый.
Можно было сделать узнаваемого (более менее) Визгунова, но ОЧЕНЬ сильно пострадают голоса оригинальные. Кто хочет послушать как будет, прошу семпл https://cloud.mail.ru/public/JsVm/s3KTmPMfR )
Cубтитры: нет
Режиссер: Майкл Кеннеди / Michael Kennedy
В ролях: Эндрю МакКарти, Синтия Джиари, Вульф Ларсон, Кали Тимминс, Ханнес Енике, Брент Стейт, Питер Хэнлон, Шон Милликен, Аарон Смолински, Эндрю Вилер, Колин Каннингэм, Кен Камру, Джейсон Грей-Стенфорд, Ник Джеймс, Сара Браун, Cory Dagg, Тейлор Скотт, Стефен Фаннинг, Reese McBeth, Энтони Ингрэм
Описание: У офицера полиции Люси Джеймс был жених, который служил в том же участке. Во время перестрелки на улице ее жениха убили, и безутешная Люси решает уйти из полиции. Теперь она работает диспетчером в охранной организации, обеспечивающей безопасность крупного банка. Работа в дружелюбном мужском коллективе кажется непыльной и довольно приятной, но злой рок настигает ее и здесь. Под Пасху в диспетчерскую врываются вооруженные грабители в масках.
Доп. информация: Благодарность:
Анна57 - за дорожку с переводом AVO с VHS
xelon2006 - за синхрон дорожки.

Релиз
Сэмпл: https://yadi.sk/i/R1Ww1j4NjN2Ut
Качество видео: DVDRip
Формат видео: AVI
Видео: 640x480 (1.33:1), 23.976 fps, XviD build 50 ~1792 kbps avg, 0.24 bit/pixel
Аудио: 48 kHz, AC3 Dolby Digital, 2/0 (L,R) ch, ~192 kbps

MediaInfo

Напролом - The Heist (aka Hostile Force) [by Edich2].avi
Format : AVI
Format/Info : Audio Video Interleave
File size : 1.37 GiB
Duration : 1h 38mn
Overall bit rate : 1 994 Kbps
Movie name : Напролом - The Heist (aka Hostile Force) [by Edich2]
Director : by Edich2
Writing application : VirtualDubMod 1.5.10.2 (build 2540/release)
Comment : RuTracker.org
Video
ID : 0
Format : MPEG-4 Visual
Format profile : Advanced Simple@L5
Format settings, BVOP : 1
Format settings, QPel : No
Format settings, GMC : No warppoints
Format settings, Matrix : Default (MPEG)
Codec ID : XVID
Codec ID/Hint : XviD
Duration : 1h 38mn
Bit rate : 1 793 Kbps
Width : 640 pixels
Height : 480 pixels
Display aspect ratio : 4:3
Frame rate : 23.976 fps
Color space : YUV
Chroma subsampling : 4:2:0
Bit depth : 8 bits
Scan type : Progressive
Compression mode : Lossy
Bits/(Pixel*Frame) : 0.243
Stream size : 1.23 GiB (90%)
Writing library : XviD 1.2.1 (UTC 2008-12-04)
Audio
ID : 1
Format : AC-3
Format/Info : Audio Coding 3
Mode extension : CM (complete main)
Format settings, Endianness : Big
Codec ID : 2000
Duration : 1h 38mn
Bit rate mode : Constant
Bit rate : 192 Kbps
Channel(s) : 2 channels
Channel positions : Front: L R
Sampling rate : 48.0 KHz
Bit depth : 16 bits
Compression mode : Lossy
Stream size : 135 MiB (10%)
Alignment : Split accross interleaves
Interleave, duration : 42 ms (1.00 video frame)
Interleave, preload duration : 500 ms

To download the content you need:
1. Download and install torrent client [for Windows] or for mobile system
2. Click on [Download]
Attention.
If the test YOU are NOT a ROBOT - does not work, then You are using an outdated browser.
Install the current browser and click on [Download]

Do not work with Yandex browser. Uploading files to them is erroneous.
Security: torrent client is allowed by Kaspersky.

[en.asmlocator.ru].t4779.torrent 
Torrent: Registered [ 2015-12-02 05:40 ] · 64EA605BA9FCC0F0EAFA38D93EF84B94DB1F044F

Download .torrent

Download

14 KB

Status: checked
Completed: 0 times
Size: 1.37 GB
terms.php
[Profile] [PM]
Display posts:    
Reply to topic

Current time is: 03-Apr 03:41

All times are UTC ± 0



You cannot post new topics in this forum
You cannot reply to topics in this forum
You cannot edit your posts in this forum
You cannot delete your posts in this forum
You cannot vote in polls in this forum
You cannot attach files in this forum
You can download files in this forum
Верим фактам, а не вранью Путина! Факт, что Правительство ведёт Россию к истреблению.
Так как численность населения падает, даже не смотря на приток эмигрантов!
Русская нация вымирает и вырождается, смешиваясь с эмигрантами!
Факт, что военных и граждан предприятий заставляют голосовать за партию Единая Россия и Путина
ПОД СТРАХОМ УВОЛЬНЕНИЯ!
Нам не нужно Правительство, блокирующее личную жизнь, интернет, нарушающее сохранность данных.
Все эти действия финансируются за счёт народа!