Хэллоуинтаун / Halloweentown (Дуэйн Данэм / Duwayne Dunham) [1998, США, комедия, приключения, семейный, фэнтези, DVDRip] Dub (Невафильм) + MVO (Инис)

Reply to topic
DL-List and Torrent activity
Size:  1.46 GB   |    Registered:  4 years 4 months   |    Completed:  4 times

Seeder not seen: 3 months 21 day

 
   
 
 
Author Message

star21 ®

Gender: Female

Longevity: 4 years 5 months

Posts: 551945

Location: Екатеринбург

Post 02-Dec-2015 05:41

[Quote]

Хэллоуинтаун / Halloweentown
Страна: США
Жанр: комедия, приключения, семейный, фэнтези
Год выпуска: 1998
Продолжительность: 01:24:18
Перевод: Профессиональный (дублированный) - Невафильм
Перевод: Профессиональный (многоголосый закадровый) - Инис
Cубтитры: нет

Режиссер: Дуэйн Данэм / Duwayne Dunham
В ролях: Дебби Рейнолдс, Джудит Хоаг, Кимберли Дж. Браун, Филлип Ван Дайк, Джои Зиммерман, Робин Томас, Шеннон Дэй, Дж.В. Кроуфорд, Джордин Ф. Филдс, Винсент Гамбино, Джудит М. Форд, Кеннет Чои, Мишель Мариана, Хэнк Картрайт, Бетти Мойер, Шерилин Лоусон, В. Джуд Хилл, Джордж А. Келлер, Майкл Патрик Иган, Рино Романо, Бен Оде
Описание: В канун Хэллоуина, Марни сильно повздорила со своей мамой Гвен. А тут еще и бабушка Эгги приехала с визитом, и говорит, что девочке надо срочно начать учится всяким ведьмацким штучкам, иначе, с наступлением 13-летия ее магические возможности будут утрачены навсегда. Но есть еще одна причина приезда Эгги. Что-то темное и злое растет в Хэллоуинтауне, и Эгги хочет воспользоваться помощью внучки, чтобы победить это зло…
Качество видео:
Формат видео: AVI
Видео: 640x480 (1.33:1), 23.976 fps, XviD build 73 ~2076 kbps avg, 0.28 bit/pixel
Аудио: 48 kHz, AC3 Dolby Digital, 2/0 (L,R) ch, ~192 kbps - дубляж
Аудио: 48 kHz, AC3 Dolby Digital, 2/0 (L,R) ch, ~192 kbps - многоголосый

MediaInfo

Общее
Полное имя : H:\Halloweentown.1998.dvdrip_[1.46]_[teko].avi
Формат : AVI
Формат/Информация : Audio Video Interleave
Размер файла : 1,46 Гбайт
Продолжительность : 1 ч. 24 м.
Общий поток : 2475 Кбит/сек
Программа кодирования : VirtualDubMod 1.5.10.3 | www.virtualdub-fr.org || (build 2550/release)
Библиотека кодирования : VirtualDubMod build 2550/release
Видео
Идентификатор : 0
Формат : MPEG-4 Visual
Профиль формата : Advanced Simple@L5
Параметр BVOP формата : 1
Параметр QPel формата : Нет
Параметр GMC формата : Без точки перехода
Параметр матрицы формата : Выборочная
Идентификатор кодека : XVID
Идентификатор кодека/Подсказка : XviD
Продолжительность : 1 ч. 24 м.
Битрейт : 2077 Кбит/сек
Ширина : 640 пикселей
Высота : 480 пикселей
Соотношение сторон : 4:3
Частота кадров : 23,976 кадра/сек
Цветовое пространство : YUV
Субдискретизация насыщенности : 4:2:0
Битовая глубина : 8 бит
Тип развёртки : Прогрессивная
Метод сжатия : С потерями
Бит/(Пиксели*Кадры) : 0.282
Размер потока : 1,22 Гбайт (84%)
Библиотека кодирования : XviD 73
Аудио #1
Идентификатор : 1
Формат : AC-3
Формат/Информация : Audio Coding 3
Расширение режима : CM (complete main)
Параметр Endianness формата : Big
Идентификатор кодека : 2000
Продолжительность : 1 ч. 24 м.
Вид битрейта : Постоянный
Битрейт : 192 Кбит/сек
Каналы : 2 канала
Расположение каналов : Front: L R
Частота : 48,0 КГц
Битовая глубина : 16 бит
Метод сжатия : С потерями
Размер потока : 116 Мбайт (8%)
Выравнивание : Разделение по промежуткам
Продолжительность промежутка : 42 мс. (1,00 видеокадр)
Время предзагрузки промежутка : 500 мс.
Аудио #2
Идентификатор : 2
Формат : AC-3
Формат/Информация : Audio Coding 3
Расширение режима : CM (complete main)
Параметр Endianness формата : Big
Идентификатор кодека : 2000
Продолжительность : 1 ч. 24 м.
Вид битрейта : Постоянный
Битрейт : 192 Кбит/сек
Каналы : 2 канала
Расположение каналов : Front: L R
Частота : 48,0 КГц
Битовая глубина : 16 бит
Метод сжатия : С потерями
Размер потока : 116 Мбайт (8%)
Выравнивание : Разделение по промежуткам
Продолжительность промежутка : 42 мс. (1,00 видеокадр)
Время предзагрузки промежутка : 500 мс.
Релиз группы:
-
-

To download the content you need:
1. Download and install torrent client [for Windows] or for mobile system
2. Click on [Download]
Attention.
If the test YOU are NOT a ROBOT - does not work, then You are using an outdated browser.
Install the current browser and click on [Download]

Do not work with Yandex browser. Uploading files to them is erroneous.
Security: torrent client is allowed by Kaspersky.

[en.asmlocator.ru].t4777.torrent 
Torrent: Registered [ 2015-12-02 05:40 ] · 34DC98DD928D45C85E22A9C5779448A46EB6B7DC

Download .torrent

Download

15 KB

Status: checked
Completed: 4 times
Size: 1.46 GB
terms.php
[Profile] [PM]
Display posts:    
Reply to topic

Current time is: 08-Apr 02:43

All times are UTC ± 0



You cannot post new topics in this forum
You cannot reply to topics in this forum
You cannot edit your posts in this forum
You cannot delete your posts in this forum
You cannot vote in polls in this forum
You cannot attach files in this forum
You can download files in this forum
Верим фактам, а не вранью Путина! Факт, что Правительство ведёт Россию к истреблению.
Так как численность населения падает, даже не смотря на приток эмигрантов!
Русская нация вымирает и вырождается, смешиваясь с эмигрантами!
Факт, что военных и граждан предприятий заставляют голосовать за партию Единая Россия и Путина
ПОД СТРАХОМ УВОЛЬНЕНИЯ!
Нам не нужно Правительство, блокирующее личную жизнь, интернет, нарушающее сохранность данных.
Все эти действия финансируются за счёт народа!