Невеста напрокат / И в радости, и в горе / Невеста в кредит / For Better or Worse (Джейсон Александер / Jason Alexander) [1995, США, Комедия, SATRip] DVO НТВ+ + Пётр Карцев

Reply to topic
DL-List and Torrent activity
Size:  1.42 GB   |    Registered:  4 years 4 months   |    Completed:  1 time

Seeder not seen: 5 months 14 days

 
   
 
 
Author Message

star21 ®

Gender: Female

Longevity: 4 years 4 months

Posts: 551945

Location: Екатеринбург

Post 02-Dec-2015 05:41

[Quote]

Невеста напрокат / И в радости, и в горе / Невеста в кредит / For Better or Worse
Страна: США
Жанр: Комедия
Год выпуска: 1995
Продолжительность: 01:25:20
Перевод: Профессиональный (двухголосый закадровый) НТВ+
Перевод 2: Авторский (одноголосый, закадровый) - Пётр Карцев
Cубтитры: нет
Оригинальная аудиодорожка: английский
Режиссер: Джейсон Александер / Jason Alexander
В ролях: Джейсон Александер /Jason Alexander/, Лолита Давидович /Lolita Davidovich/, Джо Мантенья /Joe Mantegna/, Роб Райнер /Rob Reiner/, Джеймс Вудс /James Woods/
Описание: Героя фильма недотёпу и неудачника Майка бросила любимая девушка по имени Валери, уехав играть в какой-то рок-группе. Он не может пережить этого и ходит к психоаналитику, посещая при этом общества анонимных алкоголиков, обжор, клептоманов и так далее. Вдруг к безутешному чудаку приезжает брат Реджи, затеявший провернуть опасное дельце. Он решил нанять гангстеров, дав им коды, чтобы ограбить кредитное общество. А к брату он забросил абсолютно пьяную девицу, тоже по имени Валери, и сами коды. У бандитов он попросил десять тысяч долларов за наводку, но те решили коды из него выбить, а денег не давать. Не выдержав пыток, Реджи сказал, что коды у брата и Валери. А тех как раз выгнал из квартиры толстый и подлый хозяин. После этого начинается чёрт знает что. Вполне приемлемая комедия с детективным уклоном.
Доп. информация: За предоставленный рип благодарим Ledy_X
"Спасибы" просьба ПИСАТЬ в теме, тем самым вы продлеваете жизнь раздаче.
Релиз
СЕМПЛ https://yadi.sk/i/vImbZdCrjPZmw
Качество видео: SATRip
Формат видео: AVI
Видео: 640x480 (1.33:1), 25 fps, XviD build 50 ~1998 kbps avg, 0.26 bit/pixel
Аудио: 48 kHz, AC3 Dolby Digital, 2/0 (L,R) ch, ~192 kbps DVO
Аудио 2: 48 kHz, AC3 Dolby Digital, 2/0 (L,R) ch, ~192 kbps AVO [by leon-masl]

скрытый текст

И в радости, и в горе - For Better or Worse SATRip [by Ledy_X].avi
Format : AVI
Format/Info : Audio Video Interleave
File size : 1.42 GiB
Duration : 1h 25mn
Overall bit rate : 2 389 Kbps
Movie name : Невеста напрокат
Director : Rip by Ledy_X
Writing application : VirtualDubMod 1.5.10.2 (build 2540/release)
Writing library : VirtualDubMod build 2540/release
Copyright : Edich2
Comment : RuTracker.org
Video
ID : 0
Format : MPEG-4 Visual
Format profile : Advanced Simple@L5
Format settings, BVOP : 1
Format settings, QPel : No
Format settings, GMC : No warppoints
Format settings, Matrix : Custom
Codec ID : XVID
Codec ID/Hint : XviD
Duration : 1h 25mn
Bit rate : 2 000 Kbps
Width : 640 pixels
Height : 480 pixels
Display aspect ratio : 4:3
Frame rate : 25.000 fps
Color space : YUV
Chroma subsampling : 4:2:0
Bit depth : 8 bits
Scan type : Progressive
Compression mode : Lossy
Bits/(Pixel*Frame) : 0.260
Stream size : 1.19 GiB (84%)
Writing library : XviD 1.2.1 (UTC 2008-12-04)
Audio #1
ID : 1
Format : AC-3
Format/Info : Audio Coding 3
Mode extension : CM (complete main)
Format settings, Endianness : Big
Codec ID : 2000
Duration : 1h 24mn
Bit rate mode : Constant
Bit rate : 192 Kbps
Channel(s) : 2 channels
Channel positions : Front: L R
Sampling rate : 48.0 KHz
Bit depth : 16 bits
Compression mode : Lossy
Stream size : 117 MiB (8%)
Alignment : Split accross interleaves
Interleave, duration : 40 ms (1.01 video frame)
Interleave, preload duration : 500 ms
Audio #2
ID : 2
Format : AC-3
Format/Info : Audio Coding 3
Codec ID : 2000
Duration : 1h 21mn
Bit rate mode : Constant
Bit rate : 192 Kbps
Channel(s) : 2 channels
Sampling rate : 48.0 KHz
Compression mode : Lossy
Stream size : 112 MiB (8%)
Alignment : Split accross interleaves
Interleave, duration : 42 ms (1.04 video frame)
Interleave, preload duration : 500 ms

Скриншоты


29.09.15 ТОРРЕНТ ПЕРЕЗАЛИТ. ДОБАВЛЕН ПЕРЕВОД КАРЦЕВА.

To download the content you need:
1. Download and install torrent client [for Windows] or for mobile system
2. Click on [Download]
Attention.
If the test YOU are NOT a ROBOT - does not work, then You are using an outdated browser.
Install the current browser and click on [Download]

Do not work with Yandex browser. Uploading files to them is erroneous.
Security: torrent client is allowed by Kaspersky.

[en.asmlocator.ru].t4774.torrent 
Torrent: Registered [ 2015-12-02 05:40 ] · DE0F5A49F63B7BF75A45C3D55F35A3D6B0B198F4

Download .torrent

Download

15 KB

Status: checked
Completed: 1 times
Size: 1.42 GB
terms.php
[Profile] [PM]
Display posts:    
Reply to topic

Current time is: 03-Apr 10:33

All times are UTC ± 0



You cannot post new topics in this forum
You cannot reply to topics in this forum
You cannot edit your posts in this forum
You cannot delete your posts in this forum
You cannot vote in polls in this forum
You cannot attach files in this forum
You can download files in this forum
Верим фактам, а не вранью Путина! Факт, что Правительство ведёт Россию к истреблению.
Так как численность населения падает, даже не смотря на приток эмигрантов!
Русская нация вымирает и вырождается, смешиваясь с эмигрантами!
Факт, что военных и граждан предприятий заставляют голосовать за партию Единая Россия и Путина
ПОД СТРАХОМ УВОЛЬНЕНИЯ!
Нам не нужно Правительство, блокирующее личную жизнь, интернет, нарушающее сохранность данных.
Все эти действия финансируются за счёт народа!