Татуировка / Cyber Bandits / A Sailor\'s Tattoo (Эрик Флеминг / Erik Fleming) [1995, США, фантастика, триллер, криминал, приключения, DVDRip] DVO

Reply to topic
DL-List and Torrent activity
Size:  744 MB   |    Registered:  4 years 4 months   |    Completed:  0 times

Seeder not seen: Never

 
   
 
 
Author Message

star21 ®

Gender: Female

Longevity: 4 years 4 months

Posts: 551945

Location: Екатеринбург

Post 02-Dec-2015 05:41

[Quote]

Татуировка / Cyber Bandits / A Sailor's Tattoo
Страна: США
Жанр: фантастика, триллер, криминал, приключения
Год выпуска: 1995
Продолжительность: 01:23:43
Перевод: Профессиональный (двухголосый закадровый)
Cубтитры: нет
Режиссер: Эрик Флеминг / Erik Fleming
В ролях: Мартин Кемп, Александра Пол, Адам Энт, Грейс Джонс, Генри Гибсон, Джеймс Хонг, Нилс Аллен Стюарт, Роберт Хэйс, Крис Викс, Калику Ашарри, Катрин Дао, Ян Бирч, Барбара Энн Мур, Киана Том, Рон Девон
Описание: Моряк Джек Морис попадает на службу к мафиози Моргану Уэлсу. В одни прекрасный день Моргана покидает его очаровательная любовница Ребекка, прихватив с собой ни много ни мало диск, на котором записана информация о сверхсекретном оружии, владелец которого получит неограниченную власть над человечеством.
Влюбленный в Ребекку Джек вызывается помочь девушке продать диск за большие деньги. Но как вывезти его из страны? Беглецам приходит в голову идея: секретную информацию в цифровом виде можно поместить в… татуировку.

Автор: BEN-BEN
Релиз:
Качество видео: DVDRip
Формат видео: AVI
Видео: 640x480 (1.33:1), 25 fps, XviD build 73 ~1104 kbps avg, 0.14 bit/pixel
Аудио: 48 kHz, MPEG Layer 3, 2 ch, ~128.00 kbps avg

MediaInfo

Общее
Полное имя : C:\Documents and Settings\User\Рабочий стол\Фильмы BEN-BEN\Cyber Bandits.1995.DVDRip.XviD.BEN-BEN.avi
Формат : AVI
Формат/Информация : Audio Video Interleave
Размер файла : 744 Мбайт
Продолжительность : 1 ч. 23 м.
Общий поток : 1243 Кбит/сек
Программа кодирования : VirtualDubMod 1.5.10.3 | www.virtualdub-fr.org || (build 2550/release)
Библиотека кодирования : VirtualDubMod build 2550/release
Видео
Идентификатор : 0
Формат : MPEG-4 Visual
Профиль формата : Advanced Simple@L5
Параметр BVOP формата : 1
Параметр QPel формата : Нет
Параметр GMC формата : Без точки перехода
Параметр матрицы формата : Выборочная
Идентификатор кодека : XVID
Идентификатор кодека/Подсказка : XviD
Продолжительность : 1 ч. 23 м.
Битрейт : 1105 Кбит/сек
Ширина : 640 пикселей
Высота : 480 пикселей
Соотношение сторон : 4:3
Частота кадров : 25,000 кадров/сек
Цветовое пространство : YUV
Субдискретизация насыщенности : 4:2:0
Битовая глубина : 8 бит
Тип развёртки : Прогрессивная
Метод сжатия : С потерями
Бит/(Пиксели*Кадры) : 0.144
Размер потока : 662 Мбайт (89%)
Библиотека кодирования : XviD 73
Аудио
Идентификатор : 1
Формат : MPEG Audio
Версия формата : Version 1
Профиль формата : Layer 3
Идентификатор кодека : 55
Идентификатор кодека/Подсказка : MP3
Продолжительность : 1 ч. 23 м.
Вид битрейта : Постоянный
Битрейт : 128 Кбит/сек
Каналы : 2 канала
Частота : 48,0 КГц
Метод сжатия : С потерями
Размер потока : 76,7 Мбайт (10%)
Выравнивание : Соединение по промежуткам
Продолжительность промежутка : 40 мс. (1,00 видеокадр)
Время предзагрузки промежутка : 504 мс.
Библиотека кодирования : LAME3.99r
Настройки программы : -m s -V 4 -q 2 -lowpass 17 -b 128

Скриншоты


To download the content you need:
1. Download and install torrent client [for Windows] or for mobile system
2. Click on [Download]
Attention.
If the test YOU are NOT a ROBOT - does not work, then You are using an outdated browser.
Install the current browser and click on [Download]

Do not work with Yandex browser. Uploading files to them is erroneous.
Security: torrent client is allowed by Kaspersky.

[en.asmlocator.ru].t4772.torrent 
Torrent: Registered [ 2015-12-02 05:40 ] · 22ABD3CF824F2F3F5825D0FF81C826C6685D1905

Download .torrent

Download

15 KB

Status: checked
Completed: 0 times
Size: 744 MB
terms.php
[Profile] [PM]
Display posts:    
Reply to topic

Current time is: 05-Apr 04:57

All times are UTC ± 0



You cannot post new topics in this forum
You cannot reply to topics in this forum
You cannot edit your posts in this forum
You cannot delete your posts in this forum
You cannot vote in polls in this forum
You cannot attach files in this forum
You can download files in this forum
Верим фактам, а не вранью Путина! Факт, что Правительство ведёт Россию к истреблению.
Так как численность населения падает, даже не смотря на приток эмигрантов!
Русская нация вымирает и вырождается, смешиваясь с эмигрантами!
Факт, что военных и граждан предприятий заставляют голосовать за партию Единая Россия и Путина
ПОД СТРАХОМ УВОЛЬНЕНИЯ!
Нам не нужно Правительство, блокирующее личную жизнь, интернет, нарушающее сохранность данных.
Все эти действия финансируются за счёт народа!