Нулевой допуск / Не ведая пощады / Zero Tolerance (Джозеф Мерхи / Joseph Merhi) [1994, США, боевик, триллер, драма, криминал, DVDRip] MVO (6-й канал СПб) + MVO (Нева 1) + AVO (Дохалов) + Original Eng

Reply to topic
DL-List and Torrent activity
Size:  1.71 GB   |    Registered:  4 years 3 months   |    Completed:  0 times

Seeder not seen: 3 years 6 months

 
   
 
 
Author Message

star21 ®

Gender: Female

Longevity: 4 years 4 months

Posts: 551945

Location: Екатеринбург

Post 02-Dec-2015 05:41

[Quote]

Нулевой допуск / Не ведая пощады / Zero Tolerance
Страна: США
Жанр: боевик, триллер, драма, криминал
Год выпуска: 1994
Продолжительность: 01:32:14
Перевод 1: Профессиональный (многоголосый закадровый) 6-й канал СПб
Перевод 2: Профессиональный (многоголосый закадровый) Нева 1
Перевод 3: Авторский (одноголосый закадровый) Вартан Дохалов
Cубтитры: нет
Оригинальная аудиодорожка: английский
Режиссер: Джозеф Мерхи /Joseph Merhi
В ролях: Роберт Патрик, Титус Уэлливер, Мик Флитвуд, Майлз О’Киффи, Кристен Медоуз, Барбара Патрик, Джеффри Андерсон-Гюнтер, Густав Винтас, Джед Аллан, Билл Хафси
Описание: Герой Роберта Патрика — агент ФБР Джефф Дуглас. Это «очень крутой» парень, который расправляется с пятью главарями наркомафии из картеля «Белая рука» и их бесчисленными охранниками. Джефф ведет в одиночку эту войну, так как должен отомстить преступникам, убившим его семью.
Сэмпл: http://multi-up.com/1068783

Качество видео: DVDRip -
Формат видео: AVI
Видео: 624x480 (1.30:1), 23.976 fps, XviD, 1876 kbps, 0.26 bit/pixel
Аудио 1: 48 kHz, AC3 Dolby Digital, 2/0 (L,R) ch, 192 kbps, МVO (6-й канал СПб)
Аудио 2: 48 kHz, AC3 Dolby Digital, 2/0 (L,R) ch, 192 kbps, МVO (Нева 1)
Аудио 3: 48 kHz, AC3 Dolby Digital, 2/0 (L,R) ch, 192 kbps, АVO (Дохалов) - Отдельно.
Аудио 4: 48 kHz, AC3 Dolby Digital, 2/0 (L,R) ch, 192 kbps, Original (Eng) - Отдельно.

MediaInfo

General
Complete name : E:\Раздачи\rutracker.org\Nulevoi_dopusk_1.46_by_max1wq\Nulevoi_dopusk_1.46_by_max1wq.avi
Format : AVI
Format/Info : Audio Video Interleave
File size : 1.47 GiB
Duration : 1h 32mn
Overall bit rate : 2 276 Kbps
Writing application : VirtualDubMod 1.5.10.2 (build 2540/release)
Writing library : VirtualDubMod build 2540/release
Video
ID : 0
Format : MPEG-4 Visual
Format profile : Advanced Simple@L5
Format settings, BVOP : 2
Format settings, QPel : No
Format settings, GMC : No warppoints
Format settings, Matrix : Custom
Codec ID : XVID
Codec ID/Hint : XviD
Duration : 1h 32mn
Bit rate : 1 877 Kbps
Width : 624 pixels
Height : 480 pixels
Display aspect ratio : 4:3
Frame rate : 23.976 fps
Color space : YUV
Chroma subsampling : 4:2:0
Bit depth : 8 bits
Scan type : Progressive
Compression mode : Lossy
Bits/(Pixel*Frame) : 0.261
Stream size : 1.21 GiB (82%)
Writing library : XviD 73
Audio #1
ID : 1
Format : AC-3
Format/Info : Audio Coding 3
Mode extension : CM (complete main)
Format settings, Endianness : Big
Codec ID : 2000
Duration : 1h 32mn
Bit rate mode : Constant
Bit rate : 192 Kbps
Channel(s) : 2 channels
Channel positions : Front: L R
Sampling rate : 48.0 KHz
Compression mode : Lossy
Stream size : 127 MiB (8%)
Alignment : Split accross interleaves
Interleave, duration : 42 ms (1.00 video frame)
Interleave, preload duration : 500 ms
Audio #2
ID : 2
Format : AC-3
Format/Info : Audio Coding 3
Mode extension : CM (complete main)
Format settings, Endianness : Big
Codec ID : 2000
Duration : 1h 32mn
Bit rate mode : Constant
Bit rate : 192 Kbps
Channel(s) : 2 channels
Channel positions : Front: L R
Sampling rate : 48.0 KHz
Compression mode : Lossy
Stream size : 127 MiB (8%)
Alignment : Split accross interleaves
Interleave, duration : 42 ms (1.00 video frame)
Interleave, preload duration : 500 ms
General
Complete name : E:\Раздачи\rutracker.org\Nulevoi_dopusk_1.46_by_max1wq\Nulevoi_dopusk_1.46_by_max1wq.Eng.ac3
Format : AC-3
Format/Info : Audio Coding 3
File size : 127 MiB
Duration : 1h 32mn
Overall bit rate mode : Constant
Overall bit rate : 192 Kbps
Audio
Format : AC-3
Format/Info : Audio Coding 3
Mode extension : CM (complete main)
Format settings, Endianness : Big
Duration : 1h 32mn
Bit rate mode : Constant
Bit rate : 192 Kbps
Channel(s) : 2 channels
Channel positions : Front: L R
Sampling rate : 48.0 KHz
Compression mode : Lossy
Stream size : 127 MiB (100%)
General
Complete name : E:\Раздачи\rutracker.org\Nulevoi_dopusk_1.46_by_max1wq\Nulevoi_dopusk_1.46_by_max1wq.Дохалов.ac3
Format : AC-3
Format/Info : Audio Coding 3
File size : 127 MiB
Duration : 1h 32mn
Overall bit rate mode : Constant
Overall bit rate : 192 Kbps
Audio
Format : AC-3
Format/Info : Audio Coding 3
Mode extension : CM (complete main)
Format settings, Endianness : Big
Duration : 1h 32mn
Bit rate mode : Constant
Bit rate : 192 Kbps
Channel(s) : 2 channels
Channel positions : Front: L R
Sampling rate : 48.0 KHz
Compression mode : Lossy
Stream size : 127 MiB (100%)

To download the content you need:
1. Download and install torrent client [for Windows] or for mobile system
2. Click on [Download]
Attention.
If the test YOU are NOT a ROBOT - does not work, then You are using an outdated browser.
Install the current browser and click on [Download]

Do not work with Yandex browser. Uploading files to them is erroneous.
Security: torrent client is allowed by Kaspersky.

[en.asmlocator.ru].t4771.torrent 
Torrent: Registered [ 2015-12-02 05:40 ] · 51DBE29ED88E905D2CD2E6CD02D2813637793B73

Download .torrent

Download

18 KB

Status: checked
Completed: 0 times
Size: 1.71 GB
terms.php
[Profile] [PM]
Display posts:    
Reply to topic

Current time is: 31-Mar 18:46

All times are UTC ± 0



You cannot post new topics in this forum
You cannot reply to topics in this forum
You cannot edit your posts in this forum
You cannot delete your posts in this forum
You cannot vote in polls in this forum
You cannot attach files in this forum
You can download files in this forum
Верим фактам, а не вранью Путина! Факт, что Правительство ведёт Россию к истреблению.
Так как численность населения падает, даже не смотря на приток эмигрантов!
Русская нация вымирает и вырождается, смешиваясь с эмигрантами!
Факт, что военных и граждан предприятий заставляют голосовать за партию Единая Россия и Путина
ПОД СТРАХОМ УВОЛЬНЕНИЯ!
Нам не нужно Правительство, блокирующее личную жизнь, интернет, нарушающее сохранность данных.
Все эти действия финансируются за счёт народа!