Нулевой допуск / Не ведая пощады / Zero Tolerance (Джозеф Мерхи / Joseph Merhi) [1994, США, боевик, триллер, драма, криминал, DVDRip] MVO (6-й канал СПб) + MVO (Нева 1) + AVO (Дохалов) + Original Eng

Reply to topic
DL-List and Torrent activity
Size:  1001 MB   |    Registered:  4 years 3 months   |    Completed:  0 times

Seeder not seen: Never

 
   
 
 
Author Message

star21 ®

Gender: Female

Longevity: 4 years 4 months

Posts: 551945

Location: Екатеринбург

Post 02-Dec-2015 05:41

[Quote]

Нулевой допуск / Не ведая пощады / Zero Tolerance
Страна: США
Жанр: боевик, триллер, драма, криминал
Год выпуска: 1994
Продолжительность: 01:32:14
Перевод 1: Профессиональный (многоголосый закадровый) 6-й канал СПб
Перевод 2: Профессиональный (многоголосый закадровый) Нева 1
Перевод 3: Авторский (одноголосый закадровый) Вартан Дохалов
Cубтитры: нет
Оригинальная аудиодорожка: английский
Режиссер: Джозеф Мерхи /Joseph Merhi
В ролях: Роберт Патрик, Титус Уэлливер, Мик Флитвуд, Майлз О’Киффи, Кристен Медоуз, Барбара Патрик, Джеффри Андерсон-Гюнтер, Густав Винтас, Джед Аллан, Билл Хафси
Описание: Герой Роберта Патрика — агент ФБР Джефф Дуглас. Это «очень крутой» парень, который расправляется с пятью главарями наркомафии из картеля «Белая рука» и их бесчисленными охранниками. Джефф ведет в одиночку эту войну, так как должен отомстить преступникам, убившим его семью.
Сэмпл: http://multi-up.com/1068785

Качество видео: DVDRip -
Формат видео: AVI
Видео: 560x432 (1.30:1), 23.976 fps, XviD, 991 kbps, 0.17 bit/pixel
Аудио 1: 48 kHz, MPEG Layer 3, 2 ch, 128.00 kbps, МVO (6-й канал СПб)
Аудио 2: 48 kHz, MPEG Layer 3, 2 ch, 128.00 kbps, МVO (Нева 1) - Отдельно.
Аудио 3: 48 kHz, MPEG Layer 3, 2 ch, 128.00 kbps, АVO (Дохалов) - Отдельно.
Аудио 4: 48 kHz, MPEG Layer 3, 2 ch, 128.00 kbps, Original (Eng) - Отдельно.

MediaInfo

General
Complete name : E:\Раздачи\rutracker.org\Nulevoi_dopusk_745_by_max1wq\Nulevoi_dopusk_745_by_max1wq.avi
Format : AVI
Format/Info : Audio Video Interleave
File size : 745 MiB
Duration : 1h 32mn
Overall bit rate : 1 129 Kbps
Writing application : VirtualDubMod 1.5.10.2 (build 2540/release)
Writing library : VirtualDubMod build 2540/release
Video
ID : 0
Format : MPEG-4 Visual
Format profile : Advanced Simple@L5
Format settings, BVOP : 2
Format settings, QPel : No
Format settings, GMC : No warppoints
Format settings, Matrix : Custom
Codec ID : XVID
Codec ID/Hint : XviD
Duration : 1h 32mn
Bit rate : 992 Kbps
Width : 560 pixels
Height : 432 pixels
Display aspect ratio : 1.296
Frame rate : 23.976 fps
Color space : YUV
Chroma subsampling : 4:2:0
Bit depth : 8 bits
Scan type : Progressive
Compression mode : Lossy
Bits/(Pixel*Frame) : 0.171
Stream size : 655 MiB (88%)
Writing library : XviD 73
Audio
ID : 1
Format : MPEG Audio
Format version : Version 1
Format profile : Layer 3
Codec ID : 55
Codec ID/Hint : MP3
Duration : 1h 32mn
Bit rate mode : Constant
Bit rate : 128 Kbps
Channel(s) : 2 channels
Sampling rate : 48.0 KHz
Compression mode : Lossy
Stream size : 84.5 MiB (11%)
Alignment : Aligned on interleaves
Interleave, duration : 42 ms (1.00 video frame)
Interleave, preload duration : 504 ms
General
Complete name : E:\Раздачи\rutracker.org\Nulevoi_dopusk_745_by_max1wq\Nulevoi_dopusk_745_by_max1wq.Eng.mp3
Format : MPEG Audio
File size : 84.5 MiB
Duration : 1h 32mn
Overall bit rate mode : Constant
Overall bit rate : 128 Kbps
Genre : Other
Audio
Format : MPEG Audio
Format version : Version 1
Format profile : Layer 3
Duration : 1h 32mn
Bit rate mode : Constant
Bit rate : 128 Kbps
Channel(s) : 2 channels
Sampling rate : 48.0 KHz
Compression mode : Lossy
Stream size : 84.5 MiB (100%)
General
Complete name : E:\Раздачи\rutracker.org\Nulevoi_dopusk_745_by_max1wq\Nulevoi_dopusk_745_by_max1wq.Neva1.mp3
Format : MPEG Audio
File size : 86.5 MiB
Duration : 1h 34mn
Overall bit rate mode : Constant
Overall bit rate : 128 Kbps
Genre : Blues
Audio
Format : MPEG Audio
Format version : Version 1
Format profile : Layer 3
Duration : 1h 34mn
Bit rate mode : Constant
Bit rate : 128 Kbps
Channel(s) : 2 channels
Sampling rate : 48.0 KHz
Compression mode : Lossy
Stream size : 86.5 MiB (100%)
General
Complete name : E:\Раздачи\rutracker.org\Nulevoi_dopusk_745_by_max1wq\Nulevoi_dopusk_745_by_max1wq.Дохалов.mp3
Format : MPEG Audio
File size : 84.5 MiB
Duration : 1h 32mn
Overall bit rate mode : Constant
Overall bit rate : 128 Kbps
Genre : Blues
Audio
Format : MPEG Audio
Format version : Version 1
Format profile : Layer 3
Duration : 1h 32mn
Bit rate mode : Constant
Bit rate : 128 Kbps
Channel(s) : 2 channels
Sampling rate : 48.0 KHz
Compression mode : Lossy
Stream size : 84.5 MiB (100%)

Скриншоты


To download the content you need:
1. Download and install torrent client [for Windows] or for mobile system
2. Click on [Download]
Attention.
If the test YOU are NOT a ROBOT - does not work, then You are using an outdated browser.
Install the current browser and click on [Download]

Do not work with Yandex browser. Uploading files to them is erroneous.
Security: torrent client is allowed by Kaspersky.

[en.asmlocator.ru].t4770.torrent 
Torrent: Registered [ 2015-12-02 05:40 ] · 54C9E15804D59FBA8A8ADBE6202CB6A10B060C4F

Download .torrent

Download

20 KB

Status: checked
Completed: 0 times
Size: 1001 MB
terms.php
[Profile] [PM]
Display posts:    
Reply to topic

Current time is: 31-Mar 19:13

All times are UTC ± 0



You cannot post new topics in this forum
You cannot reply to topics in this forum
You cannot edit your posts in this forum
You cannot delete your posts in this forum
You cannot vote in polls in this forum
You cannot attach files in this forum
You can download files in this forum
Верим фактам, а не вранью Путина! Факт, что Правительство ведёт Россию к истреблению.
Так как численность населения падает, даже не смотря на приток эмигрантов!
Русская нация вымирает и вырождается, смешиваясь с эмигрантами!
Факт, что военных и граждан предприятий заставляют голосовать за партию Единая Россия и Путина
ПОД СТРАХОМ УВОЛЬНЕНИЯ!
Нам не нужно Правительство, блокирующее личную жизнь, интернет, нарушающее сохранность данных.
Все эти действия финансируются за счёт народа!