Моя безумная жизнь / Mi vida loca / My crazy life (Эллисон Андерс / Allison Anders) [1993, США, Великобритания, драма, криминал, DVDRip] DVO

Reply to topic
DL-List and Torrent activity
Size:  745 MB   |    Registered:  4 years 7 months   |    Completed:  1 time

Seeder not seen: 8 months 22 days

 
   
 
 
Author Message

star21 ®

Gender: Female

Longevity: 4 years 8 months

Posts: 551945

Location: Екатеринбург

Post 02-Dec-2015 05:41

[Quote]

Моя безумная жизнь / Mi vida loca / My crazy life
Страна: США, Великобритания
Жанр: драма, криминал
Год выпуска: 1993
Продолжительность: 01:35:56
Перевод: Профессиональный (двухголосый закадровый)
Cубтитры: нет
Режиссер: Эллисон Андерс /Allison Anders
В ролях: Сальма Хайек, Энджел Авилес, Сейди Лопес, Джейкоб Варгас, Дивайн, Моника Латтон, Кристина Солис, Панчито Гомес, Вероника Арельяно, Артур Эскер
Описание: Эхо-Парк — район Лос-Анджелеса, где живут выходцы из Мексики. Жгучие страсти — ревность, любовь, знойные красавцы, торговцы наркотиками, секс и постоянная борьба за свое место под жарким солнцем Калифорнии…
Сэмпл: http://multi-up.com/1068802

Качество видео: DVDRip -
Формат видео: AVI
Видео: 592x336 (1.76:1), 23.976 fps, XviD, 948 kbps, 0.20 bit/pixel
Аудио: 448 kHz, MPEG Layer 3, 2 ch, 128.00 kbps, DVO

MediaInfo

General
Complete name : E:\Раздачи\rutracker.org\Moja_bezumnaja_zhizn_745_by_max1wq.avi
Format : AVI
Format/Info : Audio Video Interleave
File size : 745 MiB
Duration : 1h 35mn
Overall bit rate : 1 086 Kbps
Writing application : VirtualDubMod 1.5.10.2 (build 2540/release)
Writing library : VirtualDubMod build 2540/release
Video
ID : 0
Format : MPEG-4 Visual
Format profile : Advanced Simple@L5
Format settings, BVOP : 1
Format settings, QPel : No
Format settings, GMC : No warppoints
Format settings, Matrix : Custom
Codec ID : XVID
Codec ID/Hint : XviD
Duration : 1h 35mn
Bit rate : 949 Kbps
Width : 592 pixels
Height : 336 pixels
Display aspect ratio : 16:9
Frame rate : 23.976 fps
Color space : YUV
Chroma subsampling : 4:2:0
Bit depth : 8 bits
Scan type : Progressive
Compression mode : Lossy
Bits/(Pixel*Frame) : 0.199
Stream size : 651 MiB (87%)
Writing library : XviD 73
Audio
ID : 1
Format : MPEG Audio
Format version : Version 1
Format profile : Layer 3
Codec ID : 55
Codec ID/Hint : MP3
Duration : 1h 35mn
Bit rate mode : Constant
Bit rate : 128 Kbps
Channel(s) : 2 channels
Sampling rate : 48.0 KHz
Compression mode : Lossy
Stream size : 87.8 MiB (12%)
Alignment : Aligned on interleaves
Interleave, duration : 42 ms (1.00 video frame)
Interleave, preload duration : 504 ms

To download the content you need:
1. Download and install torrent client [for Windows] or for mobile system
2. Click on [Download]
Attention.
If the test YOU are NOT a ROBOT - does not work, then You are using an outdated browser.
Install the current browser and click on [Download]

Do not work with Yandex browser. Uploading files to them is erroneous.
Security: torrent client is allowed by Kaspersky.

[en.asmlocator.ru].t4768.torrent 
Torrent: Registered [ 2015-12-02 05:40 ] · 535D127180110B43B9B2E76C757DEB4D793046BF

Download .torrent

Download

15 KB

Status: checked
Completed: 1 times
Size: 745 MB
terms.php
[Profile] [PM]
Display posts:    
Reply to topic

Current time is: 11-Jul 21:03

All times are UTC ± 0



You cannot post new topics in this forum
You cannot reply to topics in this forum
You cannot edit your posts in this forum
You cannot delete your posts in this forum
You cannot vote in polls in this forum
You cannot attach files in this forum
You can download files in this forum
Верим фактам, а не вранью Путина! Факт, что Правительство ведёт Россию к истреблению.
Так как численность населения падает, даже не смотря на приток эмигрантов!
Русская нация вымирает и вырождается, смешиваясь с эмигрантами!
Факт, что военных и граждан предприятий заставляют голосовать за партию Единая Россия и Путина
ПОД СТРАХОМ УВОЛЬНЕНИЯ!
Нам не нужно Правительство, блокирующее личную жизнь, интернет, нарушающее сохранность данных.
Все эти действия финансируются за счёт народа!