Конусоголовые / Яйцеголовые / Coneheads (Стив Бэррон / Steven Barron) [1993, США, Комедия, фантастика, VHSRip] AVO (Василий Горчаков)

Reply to topic
DL-List and Torrent activity
Size:  1.37 GB   |    Registered:  4 years 4 months   |    Completed:  0 times

Seeder not seen: 4 years 2 months

 
   
 
 
Author Message

star21 ®

Gender: Female

Longevity: 4 years 4 months

Posts: 551945

Location: Екатеринбург

Post 02-Dec-2015 05:41

[Quote]

Конусоголовые / Яйцеголовые / Coneheads
Страна: США
Жанр: Комедия, фантастика
Год выпуска: 1993
Продолжительность: 01:26:44
Перевод: Авторский (одноголосый закадровый) Василий Горчаков
Cубтитры: нет
Режиссер: Стив Бэррон / Steven Barron
В ролях: Дэн Эйкройд, Джейн Куртин, Мишель Бурк, Майкл МакКин, Фил Хартмен, Джейсон Александер, Лиза Джейн Перски, Синбад, Джен Хукс, Крис Фарли, Адам Сэндлер, Кевин Нилон, Дэвид Спейд, Тим Медоуз, Роберт Нотт, Джонатан Пеннер, Уип Хабли, Ховард Нэппер, Майкл Ричардс, Эдди Гриффин, Грант Мартелл, Арт Бонилла, Купер Лейн, Сара Энн Леви, Дрю Кэри, Шишир Куруп, Терри Тернер, МакНэлли Сагал, Ричард Комар, Даниэль Эйкройд
Описание:
Вариант 1. Аннотация от alenavova:
Два конусоголовых инопланетянина после аварии космического корабля оказываются на Земле и принимают образ жизни и привычки обычных американцев. Мягкий и лирический юмор картины носит явно региональный (американский) характер и вряд ли найдет отклик у отечественнного зрителя. Вялые и натужные злоключения пришельцев-супругов (у них рождается на Земле дочь) на дискотеке, на работе сменяются забавной экспедицией на родную планету. Кульминацией испытания становится дуэль с драконом, его побеждают клюшкой от гольфа, использованной как праща. Хорошие декорации и костюмы помогают выдержать эту заурядную комедию до конца. Популярный Дэн Эйкройд злоупотребляет, как обычно, избитыми штампами актерской мимики и стертыми ужимками провинциального трагика.
Вариант 2.
Из летающей тарелки, брякнувшейся на Землю, вываливаются инопланетяне. Такие же как мы с вами, только головы у них вытянутые как дыни (название дословно переводится как "конусоголовые"). С этого начинаются похождения залетной семейки. На наш вкус, хорошего юмора в фильме явно маловато, а смеяться над формой черепа как-то не тянет. Впрочем, кому по душе хохмочки вроде использования собственного рта вместо пылесоса, фильм понравится. Впервые на экране Мишель Берк. (Иванов М.)
Доп. информация: Оцифровка VHS (личный архив) и получение VHSRip alenavova
Эксклюзив для rutracker.org. При размещении данного релиза на других сайтах ссылка на автора alenavova обязательна.

Релиз
Сэмпл: https://yadi.sk/i/DXxb61SXjRgsS
Качество видео: VHSRip
Формат видео: AVI
Видео: 704x528 (1.33:1), 25 fps, XviD build 50 ~2054 kbps avg, 0.22 bit/pixel
Аудио: 48 kHz, AC3 Dolby Digital, 2/0 (L,R) ch, ~192 kbps

MediaInfo

Конусоголовые - Coneheads (by alenavova).avi
Format : AVI
Format/Info : Audio Video Interleave
File size : 1.37 GiB
Duration : 1h 26mn
Overall bit rate : 2 256 Kbps
Movie name : Конусоголовые - Coneheads (by alenavova)
Director : by alenavova
Writing application : VirtualDubMod 1.5.10.3 | www.virtualdub-fr.org || (build 2550/release)
Copyright : Edich2
Comment : RuTracker.org
Video
ID : 0
Format : MPEG-4 Visual
Format profile : Advanced Simple@L5
Format settings, BVOP : 1
Format settings, QPel : No
Format settings, GMC : No warppoints
Format settings, Matrix : Default (MPEG)
Codec ID : XVID
Codec ID/Hint : XviD
Duration : 1h 26mn
Bit rate : 2 055 Kbps
Width : 704 pixels
Height : 528 pixels
Display aspect ratio : 4:3
Frame rate : 25.000 fps
Color space : YUV
Chroma subsampling : 4:2:0
Bit depth : 8 bits
Scan type : Progressive
Compression mode : Lossy
Bits/(Pixel*Frame) : 0.221
Stream size : 1.24 GiB (91%)
Writing library : XviD 1.2.1 (UTC 2008-12-04)
Audio
ID : 1
Format : AC-3
Format/Info : Audio Coding 3
Mode extension : CM (complete main)
Format settings, Endianness : Big
Codec ID : 2000
Duration : 1h 26mn
Bit rate mode : Constant
Bit rate : 192 Kbps
Channel(s) : 2 channels
Channel positions : Front: L R
Sampling rate : 48.0 KHz
Bit depth : 16 bits
Compression mode : Lossy
Stream size : 119 MiB (9%)
Alignment : Split accross interleaves
Interleave, duration : 40 ms (1.00 video frame)
Interleave, preload duration : 500 ms

Скриншоты



To download the content you need:
1. Download and install torrent client [for Windows] or for mobile system
2. Click on [Download]
Attention.
If the test YOU are NOT a ROBOT - does not work, then You are using an outdated browser.
Install the current browser and click on [Download]

Do not work with Yandex browser. Uploading files to them is erroneous.
Security: torrent client is allowed by Kaspersky.

[en.asmlocator.ru].t4764.torrent 
Torrent: Registered [ 2015-12-02 05:40 ] · 920B4218138983F55B348724BCF60EC036A9A0FC

Download .torrent

Download

14 KB

Status: checked
Completed: 0 times
Size: 1.37 GB
terms.php
[Profile] [PM]
Display posts:    
Reply to topic

Current time is: 04-Apr 15:03

All times are UTC ± 0



You cannot post new topics in this forum
You cannot reply to topics in this forum
You cannot edit your posts in this forum
You cannot delete your posts in this forum
You cannot vote in polls in this forum
You cannot attach files in this forum
You can download files in this forum
Верим фактам, а не вранью Путина! Факт, что Правительство ведёт Россию к истреблению.
Так как численность населения падает, даже не смотря на приток эмигрантов!
Русская нация вымирает и вырождается, смешиваясь с эмигрантами!
Факт, что военных и граждан предприятий заставляют голосовать за партию Единая Россия и Путина
ПОД СТРАХОМ УВОЛЬНЕНИЯ!
Нам не нужно Правительство, блокирующее личную жизнь, интернет, нарушающее сохранность данных.
Все эти действия финансируются за счёт народа!