Чужие люди / Absolute Strangers (Гилберт Кэйтс / Gilbert Cates) [1991, США, Драма, DVDRip] DVO (НТВ плюс)

Reply to topic
DL-List and Torrent activity
Size:  1.45 GB   |    Registered:  4 years 3 months   |    Completed:  0 times

Seeder not seen: Never

 
   
 
 
Author Message

star21 ®

Gender: Female

Longevity: 4 years 4 months

Posts: 551945

Location: Екатеринбург

Post 02-Dec-2015 05:41

[Quote]

Чужие люди / Absolute Strangers
Страна: США
Жанр: Драма
Год выпуска: 1991
Продолжительность: 1:32:44
Перевод: Профессиональный (двухголосый закадровый) НТВ плюс
Cубтитры: нет
Режиссер: Гилберт Кэйтс / Gilbert Cates
В ролях: Генри Уинклер / Henry Winkler, Пэтти Дьюк / Patty Duke, Ричард Кайли / Richard Kiley, Одра Линдли / Audra Lindley, Карл Молден / Karl Malden, Дженнифер Хетрик / Jennifer Hetrick, Джейн Эткинсон / Jayne Atkinson, Дорис Белак / Doris Belack, Рон Фрэзиер / Ron Frazier, Стивен Гилборн / Steven Gilborn, Тони Джей / Tony Jay, Митчелл Лоранс / Mitchell Laurance
Описание: Ничто казалось бы не могло нарушить спокойствие этой дружной семьи, в которой к тому же ждали появления новорожденного. Но роковая случайность… и вот уже беременная супруга в коме, муж в шоке, а врачи настаивают на аборте для спасения матери. Муж после долгих размышлений соглашается на операцию, но неожиданно общественность, эти чужие люди, «типа мы против абортов» подает свой голос…
Доп. информация: Звук синхронизирован из раздачи makc365
Сэмпл: https://www.sendspace.com/file/rialhx
Качество видео: DVDRip
Формат видео: AVI
Видео: XviD MPEG-4 , 640x480 (1.33:1) , 23.976 fps , 2 041 Kbps
Аудио: AC3 , 48 kHz , 192.00 kbps avg , 2/0 (L,R) ch

MediaInfo

Complete name Чужие люди 1991.avi
Format : AVI
Format/Info : Audio Video Interleave
File size : 1.45 GiB
Duration : 1h 32mn
Overall bit rate : 2 242 Kbps
Writing application : VirtualDubMod 1.5.10.3 | www.virtualdub-fr.org || (build 2550/release)
Writing library : VirtualDub build 35491/release
Video
ID : 0
Format : MPEG-4 Visual
Format profile : Advanced Simple@L5
Format settings, BVOP : 1
Format settings, QPel : No
Format settings, GMC : No warppoints
Format settings, Matrix : Default (MPEG)
Codec ID : XVID
Codec ID/Hint : XviD
Duration : 1h 32mn
Bit rate : 2 041 Kbps
Width : 640 pixels
Height : 480 pixels
Display aspect ratio : 4:3
Frame rate : 23.976 fps
Color space : YUV
Chroma subsampling : 4:2:0
Bit depth : 8 bits
Scan type : Progressive
Compression mode : Lossy
Bits/(Pixel*Frame) : 0.277
Stream size : 1.32 GiB (91%)
Writing library : XviD 1.2.1 (UTC 2008-12-04)
Audio
ID : 1
Format : AC-3
Format/Info : Audio Coding 3
Mode extension : CM (complete main)
Format settings, Endianness : Big
Codec ID : 2000
Duration : 1h 32mn
Bit rate mode : Constant
Bit rate : 192 Kbps
Channel(s) : 2 channels
Channel positions : Front: L R
Sampling rate : 48.0 KHz
Compression mode : Lossy
Stream size : 127 MiB (9%)
Alignment : Aligned on interleaves
Interleave, duration : 42 ms (1.00 video frame)
Interleave, preload duratio : 512 ms

Скриншоты

To download the content you need:
1. Download and install torrent client [for Windows] or for mobile system
2. Click on [Download]
Attention.
If the test YOU are NOT a ROBOT - does not work, then You are using an outdated browser.
Install the current browser and click on [Download]

Do not work with Yandex browser. Uploading files to them is erroneous.
Security: torrent client is allowed by Kaspersky.

[en.asmlocator.ru].t4763.torrent 
Torrent: Registered [ 2015-12-02 05:40 ] · 2362A4691B72AF7428D2F6C7FE880600CA05B463

Download .torrent

Download

15 KB

Status: checked
Completed: 0 times
Size: 1.45 GB
terms.php
[Profile] [PM]
Display posts:    
Reply to topic

Current time is: 29-Mar 18:46

All times are UTC ± 0



You cannot post new topics in this forum
You cannot reply to topics in this forum
You cannot edit your posts in this forum
You cannot delete your posts in this forum
You cannot vote in polls in this forum
You cannot attach files in this forum
You can download files in this forum
Верим фактам, а не вранью Путина! Факт, что Правительство ведёт Россию к истреблению.
Так как численность населения падает, даже не смотря на приток эмигрантов!
Русская нация вымирает и вырождается, смешиваясь с эмигрантами!
Факт, что военных и граждан предприятий заставляют голосовать за партию Единая Россия и Путина
ПОД СТРАХОМ УВОЛЬНЕНИЯ!
Нам не нужно Правительство, блокирующее личную жизнь, интернет, нарушающее сохранность данных.
Все эти действия финансируются за счёт народа!