Брачные игры земных обитателей / The Mating Habits of the Earthbound Human (Джефф Эбагов / Jeff Abugov) [1999, США, комедия, VHSRip] [Fullscreen] MVO (Видеосервис)

Reply to topic
DL-List and Torrent activity
Size:  1.37 GB   |    Registered:  4 years 4 months   |    Completed:  0 times

Seeder not seen: Never

 
   
 
 
Author Message

star21 ®

Gender: Female

Longevity: 4 years 5 months

Posts: 551945

Location: Екатеринбург

Post 02-Dec-2015 05:41

[Quote]

Брачные игры земных обитателей / The Mating Habits of the Earthbound Human
[Full Screen]
Страна: США
Жанр: комедия
Год выпуска: 1999
Продолжительность: 01:26:13
Перевод: Профессиональный (многоголосый закадровый) Видеосервис
Cубтитры: нет
Режиссер: Джефф Эбагов / Jeff Abugov
В ролях: Кармен Электра, Дэвид Хайд Пирс, Лео Росси, Люси Лью, Джек Келер, Маккензи Эстин, Маркус Редмонд, Лиза Ротонди, Шэрон Уайэтт, Антонетт Сафтлер
Описание: Вариант 1. Ни у одних существ во Вселенной нет такого сложного брачного ритуала, как у обитателей земли. В этой экстравагантной комедии представлен самый необычный взгляд на взаимоотношения между полами: чей-то неведомый голос из глубин космоса анализирует брачные игры землян на примере Билли и Дженни. Сначала они поглощают ритуальную жидкость (например, пиво), перемигиваются, прихорашиваются, а затем… все, что вы хотели узнать о сексе, но боялись спросить, теперь сможете узнать без боязни. Межгалактический голос свыше откроет самые интимные тайны брачных игр землян!
Вариант 2. Представьте себе самую обыкновенную историю знакомства и любви. Парень встречает на танцах симпатичную девушку, она дает ему свой телефон, он его теряет, звонит по телефонам справочника, находит ее. Она очень рада, они ходят на свидания, первый поцелуй, первый петтинг, потом первый секс с презервативами и прочими средствами защиты, анализ на СПИД, секс без презервативов, знакомство с ее родителями, знакомство с его родителями, поездка в уединенный домик на природу, где в продаже не было ни презервативов, ни каких-либо других средств защиты. Первый непредохраняемый секс, и она забеременела. Он в шоке, она в ярости. Разлука, она идет делать аборт, он понимает, что любит ее и раскаивается, успевает прибежать в абортарий. И вот свадьба в церкви в присутствии родителей. Обычная, казалось бы, история, никаких отклонений от привычного маршрута, но сценарист и режиссер Джефф Эбагов снабдил фильм комментариями от лица инопланетного существа, которые на фоне этой банальной жизненной истории звучат крайне забавно. Получилось как бы документальное кино из серии "Канала Дискавери", только для жителей других планет. (Иванов М.)
Доп. информация: Оцифровка лицензионной VHS (личный архив) и получение VHSRip alenavova
Эксклюзив для rutracker.org. При размещении данного релиза на других сайтах ссылка на автора alenavova обязательна.

Релиз
Сэмпл: https://yadi.sk/i/qtQu2acZjSQC4
Качество видео: VHSRip
Формат видео: AVI
Видео: 704x528 (1.33:1), 25 fps, XviD build 50 ~2068 kbps avg, 0.22 bit/pixel
Аудио: 48 kHz, AC3 Dolby Digital, 2/0 (L,R) ch, ~192 kbps

MediaInfo

Брачные игры земных обитателей - The Mating Habits of the Earthbound Human (by alenavova).avi
Format : AVI
Format/Info : Audio Video Interleave
File size : 1.37 GiB
Duration : 1h 26mn
Overall bit rate : 2 271 Kbps
Movie name : Брачные игры земных обитателей - The Mating Habits of the Earthbound Human (by alenavova)
Director : by alenavova
Writing application : VirtualDubMod 1.5.10.3 | www.virtualdub-fr.org || (build 2550/release)
Copyright : Edich2
Comment : RuTracker.org
Video
ID : 0
Format : MPEG-4 Visual
Format profile : Advanced Simple@L5
Format settings, BVOP : 1
Format settings, QPel : No
Format settings, GMC : No warppoints
Format settings, Matrix : Default (MPEG)
Codec ID : XVID
Codec ID/Hint : XviD
Duration : 1h 26mn
Bit rate : 2 069 Kbps
Width : 704 pixels
Height : 528 pixels
Display aspect ratio : 4:3
Frame rate : 25.000 fps
Color space : YUV
Chroma subsampling : 4:2:0
Bit depth : 8 bits
Scan type : Progressive
Compression mode : Lossy
Bits/(Pixel*Frame) : 0.223
Stream size : 1.25 GiB (91%)
Writing library : XviD 1.2.1 (UTC 2008-12-04)
Audio
ID : 1
Format : AC-3
Format/Info : Audio Coding 3
Mode extension : CM (complete main)
Format settings, Endianness : Big
Codec ID : 2000
Duration : 1h 26mn
Bit rate mode : Constant
Bit rate : 192 Kbps
Channel(s) : 2 channels
Channel positions : Front: L R
Sampling rate : 48.0 KHz
Bit depth : 16 bits
Compression mode : Lossy
Stream size : 118 MiB (8%)
Alignment : Split accross interleaves
Interleave, duration : 40 ms (1.00 video frame)
Interleave, preload duration : 500 ms

Скриншоты


To download the content you need:
1. Download and install torrent client [for Windows] or for mobile system
2. Click on [Download]
Attention.
If the test YOU are NOT a ROBOT - does not work, then You are using an outdated browser.
Install the current browser and click on [Download]

Do not work with Yandex browser. Uploading files to them is erroneous.
Security: torrent client is allowed by Kaspersky.

[en.asmlocator.ru].t4761.torrent 
Torrent: Registered [ 2015-12-02 05:40 ] · 0583AAFD72AB89D54EA45360BF2CAED059D1DF44

Download .torrent

Download

14 KB

Status: checked
Completed: 0 times
Size: 1.37 GB
terms.php
[Profile] [PM]
Display posts:    
Reply to topic

Current time is: 10-Apr 08:30

All times are UTC ± 0



You cannot post new topics in this forum
You cannot reply to topics in this forum
You cannot edit your posts in this forum
You cannot delete your posts in this forum
You cannot vote in polls in this forum
You cannot attach files in this forum
You can download files in this forum
Верим фактам, а не вранью Путина! Факт, что Правительство ведёт Россию к истреблению.
Так как численность населения падает, даже не смотря на приток эмигрантов!
Русская нация вымирает и вырождается, смешиваясь с эмигрантами!
Факт, что военных и граждан предприятий заставляют голосовать за партию Единая Россия и Путина
ПОД СТРАХОМ УВОЛЬНЕНИЯ!
Нам не нужно Правительство, блокирующее личную жизнь, интернет, нарушающее сохранность данных.
Все эти действия финансируются за счёт народа!