Тайные игры / Secret Games (Александр Грегори Ипполайт / Alexander Gregory Hippolyte) [1992, США, триллер, драма, DVDRip] AVO (Сергей Визгунов) + Original Eng

Reply to topic
DL-List and Torrent activity
Size:  1.23 GB   |    Registered:  4 years 4 months   |    Completed:  0 times

Seeder not seen: 51 minute

 
   
 
 
Author Message

star21 ®

Gender: Female

Longevity: 4 years 5 months

Posts: 551945

Location: Екатеринбург

Post 02-Dec-2015 05:41

[Quote]

Тайные игры / Secret Games
Страна: США
Жанр: триллер, драма + большая капля эротики
Год выпуска: 1992
Продолжительность: 01:36:53
Перевод: Авторский (одноголосый закадровый) Сергей Визгунов
Cубтитры: нет
Оригинальная аудиодорожка: английский
Режиссер: Александр Грегори Ипполайт / Alexander Gregory Hippolyte
В ролях: Мартин Хьюитт /Martin Hewitt/, Мишель Брин /Michele Brin/, Делия Шеппард /Delia Sheppard/, Билли Драго /Billy Drago/, Сабрина Меско /Sabrina Mesko/, Кимберли Уильямс /Kimberly Williams/, Катя Сассон /Catya Sasson/
Описание: Красивая и молодая женщина , можно сказать, забыла, что такое ласки мужа. Супруг ею пренебрегает. Тогда она устраивается на дневную работу в высококлассный бордель. Вроде бы того, что ей не хватало, теперь много, но ей дико не повезло - она очень и очень понравилась любвеобильному маньяку. Но сюжет здесь не главное, как сами понимаете. (Иванов М.)
Доп. информация: Благодарность:
Анна57 - за дорожку AVO с VHS
xelon2006 - за синхрон дорожки.

Релиз
Сэмпл: https://yadi.sk/i/CoSctuJpjSttJ
Качество видео: DVDRip
Формат видео: AVI
Видео: 640x480 (1.33:1), 25 fps, XviD build 50 ~1348 kbps avg, 0.17 bit/pixel
Аудио: 48 kHz, AC3 Dolby Digital, 2/0 (L,R) ch, ~192 kbps
Аудио 2: 48 kHz, AC3 Dolby Digital, 2/0 (L,R) ch, ~256 kbps

MediaInfo

Тайные игры - Secret Games [by Edich2].avi
Format : AVI
Format/Info : Audio Video Interleave
File size : 1.23 GiB
Duration : 1h 36mn
Overall bit rate : 1 812 Kbps
Movie name : Тайные игры - Secret Games [by Edich2]
Director : by Edich2
Writing application : VirtualDubMod 1.5.10.2 (build 2540/release)
Comment : RuTracker.org
Video
ID : 0
Format : MPEG-4 Visual
Format profile : Advanced Simple@L5
Format settings, BVOP : 1
Format settings, QPel : No
Format settings, GMC : No warppoints
Format settings, Matrix : Custom
Codec ID : XVID
Codec ID/Hint : XviD
Duration : 1h 36mn
Bit rate : 1 349 Kbps
Width : 640 pixels
Height : 480 pixels
Display aspect ratio : 4:3
Frame rate : 25.000 fps
Color space : YUV
Chroma subsampling : 4:2:0
Bit depth : 8 bits
Scan type : Progressive
Compression mode : Lossy
Bits/(Pixel*Frame) : 0.176
Stream size : 935 MiB (74%)
Writing library : XviD 1.2.1 (UTC 2008-12-04)
Audio #1
ID : 1
Format : AC-3
Format/Info : Audio Coding 3
Mode extension : CM (complete main)
Format settings, Endianness : Big
Codec ID : 2000
Duration : 1h 36mn
Bit rate mode : Constant
Bit rate : 192 Kbps
Channel(s) : 2 channels
Channel positions : Front: L R
Sampling rate : 48.0 KHz
Bit depth : 16 bits
Compression mode : Lossy
Stream size : 133 MiB (11%)
Alignment : Split accross interleaves
Interleave, duration : 40 ms (1.00 video frame)
Interleave, preload duration : 500 ms
Audio #2
ID : 2
Format : AC-3
Format/Info : Audio Coding 3
Mode extension : CM (complete main)
Format settings, Endianness : Big
Codec ID : 2000
Duration : 1h 36mn
Bit rate mode : Constant
Bit rate : 256 Kbps
Channel(s) : 2 channels
Channel positions : Front: L R
Sampling rate : 48.0 KHz
Bit depth : 16 bits
Compression mode : Lossy
Delay relative to video : 479ms
Stream size : 177 MiB (14%)
Alignment : Split accross interleaves
Interleave, duration : 40 ms (1.00 video frame)
Interleave, preload duration : 500 ms

Скриншоты



Скриншоты (без цензуры 16+)



To download the content you need:
1. Download and install torrent client [for Windows] or for mobile system
2. Click on [Download]
Attention.
If the test YOU are NOT a ROBOT - does not work, then You are using an outdated browser.
Install the current browser and click on [Download]

Do not work with Yandex browser. Uploading files to them is erroneous.
Security: torrent client is allowed by Kaspersky.

[en.asmlocator.ru].t4760.torrent 
Torrent: Registered [ 2015-12-02 05:40 ] · C10EE7D8F45EDFF1932398C6165AE960BC99201D

Download .torrent

Download

13 KB

Status: checked
Completed: 0 times
Size: 1.23 GB
terms.php
[Profile] [PM]
Display posts:    
Reply to topic

Current time is: 07-Apr 19:46

All times are UTC ± 0



You cannot post new topics in this forum
You cannot reply to topics in this forum
You cannot edit your posts in this forum
You cannot delete your posts in this forum
You cannot vote in polls in this forum
You cannot attach files in this forum
You can download files in this forum
Верим фактам, а не вранью Путина! Факт, что Правительство ведёт Россию к истреблению.
Так как численность населения падает, даже не смотря на приток эмигрантов!
Русская нация вымирает и вырождается, смешиваясь с эмигрантами!
Факт, что военных и граждан предприятий заставляют голосовать за партию Единая Россия и Путина
ПОД СТРАХОМ УВОЛЬНЕНИЯ!
Нам не нужно Правительство, блокирующее личную жизнь, интернет, нарушающее сохранность данных.
Все эти действия финансируются за счёт народа!