Секс-тур в Таллин / Screwed in Tallinn/ Torsk pa Tallinn (Томас Алфредсон / Tomas Alfredson) [1999, Швеция, Трагикомедия, DVDRip] VO (Urasiko) + Original Swe

Reply to topic
DL-List and Torrent activity
Size:  755 MB   |    Registered:  4 years 4 months   |    Completed:  0 times

Seeder not seen: 2 years 9 months

 
   
 
 
Author Message

star21 ®

Gender: Female

Longevity: 4 years 4 months

Posts: 551945

Location: Екатеринбург

Post 02-Dec-2015 05:41

[Quote]

Секс-тур в Таллин / Screwed in Tallinn / Torsk pa Tallinn
Страна: Швеция
Жанр: Трагикомедия
Год выпуска: 1999
Продолжительность: 00:58:32
Перевод: Одноголосый закадровый Urasiko
Cубтитры: нет
Оригинальная аудиодорожка: шведский
Режиссер: Томас Алфредсон / Tomas Alfredson
В ролях: Роберт Густафсон, Йохан Реборг, Йонас Инде
Описание: Неудачливый директор турагентства организует для шведских холостяков автобусно-паромный круиз в Таллин. Участники тура очень разные: застенчивый любитель танцев, двое нахальных пикаперов, романтик-ассенизатор, вечный студент и несколько других колоритных персонажей, включая водителя автобуса. В Таллине их встречает эстонский со-организатор тура с группой женщин, желающих познакомиться со шведскими мужчинами. "Продуманная система" быстрого знакомства дает многочисленные сбои, в результате которых герои оказываются в трагикомичных ситуациях.
Доп. информация: Релиз
Озвучивание: Urasiko
Перевод: Alas P. Yorick
Раздача с субтитрами
Сэмпл: http://multi-up.com/1069048
Качество видео: DVDRip
Формат видео: AVI
Видео: XVID MPEG-4, 672x496, 25 fps, 1671 kbs
Аудио: Русская: MPEG Layer 3, 2 ch, 48 kHz, 128 kbps avg
Аудио 2: Шведская: MPEG Layer 3, 2 ch, 48 kHz, 128 kbps avg

MediaInfo

General
Complete name : D:\PEREVOD\Torsk_Pa_Tallinn\Torsk_Pa_Tallinn_Ru.avi
Format : AVI
Format/Info : Audio Video Interleave
File size : 755 MiB
Duration : 58mn 32s
Overall bit rate : 1 803 Kbps
Video
ID : 0
Format : MPEG-4 Visual
Format profile : Advanced Simple@L5
Format settings, BVOP : 1
Format settings, QPel : No
Format settings, GMC : No warppoints
Format settings, Matrix : Default (MPEG)
Codec ID : XVID
Codec ID/Hint : XviD
Duration : 58mn 32s
Bit rate : 1 533 Kbps
Width : 672 pixels
Height : 496 pixels
Display aspect ratio : 4:3
Frame rate : 25.000 fps
Color space : YUV
Chroma subsampling : 4:2:0
Bit depth : 8 bits
Scan type : Progressive
Compression mode : Lossy
Bits/(Pixel*Frame) : 0.184
Stream size : 642 MiB (85%)
Writing library : XviD 1.2.0.dev47 (UTC 2006-11-01)
Audio #1
ID : 1
Format : MPEG Audio
Format version : Version 1
Format profile : Layer 3
Mode : Joint stereo
Mode extension : MS Stereo
Codec ID : 55
Codec ID/Hint : MP3
Duration : 58mn 32s
Bit rate mode : Constant
Bit rate : 128 Kbps
Channel(s) : 2 channels
Sampling rate : 48.0 KHz
Compression mode : Lossy
Stream size : 53.6 MiB (7%)
Alignment : Split accross interleaves
Interleave, duration : 40 ms (1.00 video frame)
Interleave, preload duration : 500 ms
Audio #2
ID : 2
Format : MPEG Audio
Format version : Version 1
Format profile : Layer 3
Mode : Joint stereo
Mode extension : MS Stereo
Codec ID : 55
Codec ID/Hint : MP3
Duration : 58mn 32s
Bit rate mode : Constant
Bit rate : 128 Kbps
Channel(s) : 2 channels
Sampling rate : 48.0 KHz
Compression mode : Lossy
Stream size : 53.6 MiB (7%)
Alignment : Aligned on interleaves
Interleave, duration : 40 ms (1.00 video frame)
Interleave, preload duration : 504 ms
Writing library : LAME3.97
Encoding settings : -m j -V 4 -q 2 -lowpass 17 -b 128

Скриншот c названием фильма

Скриншоты

To download the content you need:
1. Download and install torrent client [for Windows] or for mobile system
2. Click on [Download]
Attention.
If the test YOU are NOT a ROBOT - does not work, then You are using an outdated browser.
Install the current browser and click on [Download]

Do not work with Yandex browser. Uploading files to them is erroneous.
Security: torrent client is allowed by Kaspersky.

[en.asmlocator.ru].t4759.torrent 
Torrent: Registered [ 2015-12-02 05:40 ] · 2FB4CB5954B5840149D4E7493918F35A377BCCBF

Download .torrent

Download

15 KB

Status: checked
Completed: 0 times
Size: 755 MB
terms.php
[Profile] [PM]
Display posts:    
Reply to topic

Current time is: 05-Apr 03:42

All times are UTC ± 0



You cannot post new topics in this forum
You cannot reply to topics in this forum
You cannot edit your posts in this forum
You cannot delete your posts in this forum
You cannot vote in polls in this forum
You cannot attach files in this forum
You can download files in this forum
Верим фактам, а не вранью Путина! Факт, что Правительство ведёт Россию к истреблению.
Так как численность населения падает, даже не смотря на приток эмигрантов!
Русская нация вымирает и вырождается, смешиваясь с эмигрантами!
Факт, что военных и граждан предприятий заставляют голосовать за партию Единая Россия и Путина
ПОД СТРАХОМ УВОЛЬНЕНИЯ!
Нам не нужно Правительство, блокирующее личную жизнь, интернет, нарушающее сохранность данных.
Все эти действия финансируются за счёт народа!