Перевоплощение / The Turning (Л.А. Пуополо / L.A. Puopolo) [1992, США, Драма,триллер, DVDRip] AVO Дольский

Reply to topic
DL-List and Torrent activity
Size:  1.36 GB   |    Registered:  4 years 4 months   |    Completed:  0 times

Seeder not seen: Never

 
   
 
 
Author Message

star21 ®

Gender: Female

Longevity: 4 years 5 months

Posts: 551945

Location: Екатеринбург

Post 02-Dec-2015 05:41

[Quote]

Перевоплощение / The Turning
Страна: США
Жанр: Драма ,триллер
Год выпуска: 1992
Продолжительность: 1:31:16
Перевод: Авторский (одноголосый закадровый) А. Дольский
Cубтитры: нет
Режиссер: Л.А. Пуополо / L.A. Puopolo
В ролях: Карен Аллен / Karen Allen, Рэймонд Дж. Бэрри / Raymond J. Barry, Майкл Долан / Michael Dolan, Тесс Харпер / Tess Harper, Джиллиан Андерсон / Gillian Anderson, Джим Симмонс / Jim Simmons, Мэдисон Арнольд / Madison Arnold, Тэннис Бенедикт / Tannis Benedict, Джон Ньютон / John Newton, William B. O'Boyle, Мерфи Ларсон / Murphy Larson, Майкл П. Моран / Michael P. Moran, Том Триго / Tom Trigo
Описание: Возвратившись в родной город, Клиффорд Харниш застает свою семью на грани гибели: его мать погружается в алкогольную депрессию, а отец строит отношения с новой женщиной. Ради блага семьи и самого себя он решает вмешаться в отношения родителей, используя самые жесткие методы, которые он узнал у неонацистов за четыре года своего отсутствия.
Доп. информация: Звук синхронизирован из раздачи makc365
Сэмпл: https://www.sendspace.com/file/gkrmhf
Качество видео: DVDRip
Формат видео: AVI
Видео: XviD MPEG-4 , 640x480 (1.33:1) , 23.976 fps , 1 238 Kbps
Аудио: AC3 , 48 kHz , 192.00 kbps avg , 2/0 (L,R) ch

MediaInfo

Complete name Перевоплощение 1992.avi
Format : AVI
Format/Info : Audio Video Interleave
File size : 1.36 GiB
Duration : 1h 31mn
Overall bit rate : 2 137 Kbps
Writing application : VirtualDubMod 1.5.10.3 | www.virtualdub-fr.org || (build 2550/release)
Writing library : VirtualDub build 35491/release
Video
ID : 0
Format : MPEG-4 Visual
Format profile : Advanced Simple@L5
Format settings, BVOP : 1
Format settings, QPel : No
Format settings, GMC : No warppoints
Format settings, Matrix : Default (MPEG)
Codec ID : XVID
Codec ID/Hint : XviD
Duration : 1h 31mn
Bit rate : 1 936 Kbps
Width : 640 pixels
Height : 480 pixels
Display aspect ratio : 4:3
Frame rate : 23.976 fps
Color space : YUV
Chroma subsampling : 4:2:0
Bit depth : 8 bits
Scan type : Progressive
Compression mode : Lossy
Bits/(Pixel*Frame) : 0.263
Stream size : 1.23 GiB (91%)
Writing library : XviD 1.2.1 (UTC 2008-12-04)
Audio
ID : 1
Format : AC-3
Format/Info : Audio Coding 3
Mode extension : CM (complete main)
Format settings, Endianness : Big
Codec ID : 2000
Duration : 1h 31mn
Bit rate mode : Constant
Bit rate : 192 Kbps
Channel(s) : 2 channels
Channel positions : Front: L R
Sampling rate : 48.0 KHz
Compression mode : Lossy
Stream size : 125 MiB (9%)
Alignment : Aligned on interleaves
Interleave, duration : 42 ms (1.00 video frame)
Interleave, preload duratio : 512 ms

To download the content you need:
1. Download and install torrent client [for Windows] or for mobile system
2. Click on [Download]
Attention.
If the test YOU are NOT a ROBOT - does not work, then You are using an outdated browser.
Install the current browser and click on [Download]

Do not work with Yandex browser. Uploading files to them is erroneous.
Security: torrent client is allowed by Kaspersky.

[en.asmlocator.ru].t4758.torrent 
Torrent: Registered [ 2015-12-02 05:40 ] · 995FD462D99AED7293C53969AAF3059C5693D657

Download .torrent

Download

14 KB

Status: checked
Completed: 0 times
Size: 1.36 GB
terms.php
[Profile] [PM]
Display posts:    
Reply to topic

Current time is: 07-Apr 20:09

All times are UTC ± 0



You cannot post new topics in this forum
You cannot reply to topics in this forum
You cannot edit your posts in this forum
You cannot delete your posts in this forum
You cannot vote in polls in this forum
You cannot attach files in this forum
You can download files in this forum
Верим фактам, а не вранью Путина! Факт, что Правительство ведёт Россию к истреблению.
Так как численность населения падает, даже не смотря на приток эмигрантов!
Русская нация вымирает и вырождается, смешиваясь с эмигрантами!
Факт, что военных и граждан предприятий заставляют голосовать за партию Единая Россия и Путина
ПОД СТРАХОМ УВОЛЬНЕНИЯ!
Нам не нужно Правительство, блокирующее личную жизнь, интернет, нарушающее сохранность данных.
Все эти действия финансируются за счёт народа!